2 сезон

iTunes

MVO

1

2 сезон

iTunes

iTunes

1 сезон

RePack

30

Ultimate

ВАЖНО

ИГРА 18+

pack

RePack

MK11
pack

Легкие деньги

RePack

jed

RePack

fifa19

RePack

RDR2

RePack

NEED FOR SPEED™ PAYBACK

4 сезон

9 сезон

Бесстыжие 9 сезон

Все сериалы

все сериалы на PB.wtf

RePack

FAR CRY 5

Anonymous, доброе утро, мы не успеваем собрать деньги на оплату серверов за декабрь и январь, помогите нам пожалуйста в это трудное время. В качестве благодарности мы отключим Вам всю рекламу на сайте (укажите свой ник в строку Ваше имя)!

×
  
Magnet ссылка

12 раундов: Перезагрузка / 12 Rounds: Reloaded (Роэль Рейн / Roel Reiné) [ 2013 , США , боевик , HDRip ] [ лицензия ] pb.wtf

12 раундов: Перезагрузка через торрент pb.wtf

Размер: 697 MB | Добавлен: 7 лет 6 мес. назад | Торрент скачан:764 раза
Скачать  

12-07-2013 14:36 12 раундов: Перезагрузка Скачать торрент  

12 раундов: Перезагрузка / 12 Rounds: Reloaded


  • Год выпуска:2013
  • Страна: США
  • Жанр:боевик
  • Продолжительность: 01:34:11
  • Перевод:Профессиональный (многоголосый, закадровый)[Лицензия]

  • Субтитры: Нет
    • Режиссер: Роэль Рейн / Roel Reiné
    • Продюсер:Майкл Луизи / Michael Luisi, Марк Бьенсток / Marc Bienstock, Крис Фосс / Chris Foss, Ричард Лоуелл / Richard Lowell
    • Сценарий:Дэвид Бенулло / David Benullo

  • В ролях:Том Стивенс (Tommy Weaver), Венус Терцо (McKenzie), Синди Басби (Sarah Malloy), Шон Роджерсон (Sykes), Колин Лоуренс (Jay), Челси Рейст (Amber), Себастьян Спенс (Governor Devlin), Джанин Карлтон (Diana Heller), Шон Оуэн Робертс (Kid / Valet), Чарли Керр (Motel Clerk), Рэйчел Хейуорд (Roberta Shaw), Джон Уордлоу (Judge)
    • Описание:
      Продолжение первого фильма, в котором полицейский Дэнни Фишер сошелся в схватке с очень опасным преступником Майлсом Джексоном. Тогда Майлс решил отомстить копу Фишеру и забрать жизнь его девушки. Но Дэнни оказался молодцом и обошёл все ловушки, расставленные Джексоном и вернул свою любимую. Правда преступник остался жив и не забыл про месть...

  • Рейтинг
    kinopoisk.ru: 5.348 (111)
    imdb.com: 5.30 (594)
    MPAA: R - Лицам до 17 лет обязательно присутствие взрослого
    • Качество:HDRip
    • Формат: AVI
    • Видео кодек: XviD
    • Аудио кодек: AC3
    • Видео: XviD, 640x352 (16:9), 897 kbps, 23,976 fps, 0,166 bpp
    • Аудио: MP3 / 2.0 / 48 kHz / 128 kbps /

    Общее
    Полное имя : D:Раздачи12.raundov.Perezagruzka.2013.HDRip.700MB.avi
    Формат : AVI
    Формат/Информация : Audio Video Interleave
    Размер файла : 697 Мбайт
    Продолжительность : 1 ч. 34 м.
    Общий поток : 1035 Кбит/сек
    Программа кодирования : VirtualDubMod 1.5.10.3 | (build 2550/release)
    Библиотека кодирования : VirtualDubMod build 2550/release

    Видео
    Идентификатор : 0
    Формат : MPEG-4 Visual
    Профиль формата : Advanced Simple@L5
    Параметр BVOP формата : 2
    Параметр QPel формата : Нет
    Параметр GMC формата : Без точки перехода
    Параметр матрицы формата : Default (H.263)
    Идентификатор кодека : XVID
    Идентификатор кодека/Подсказка : XviD
    Продолжительность : 1 ч. 34 м.
    Битрейт : 898 Кбит/сек
    Ширина : 640 пикселей
    Высота : 352 пикселя
    Соотношение сторон : 16:9
    Частота кадров : 23,976 кадра/сек
    Цветовое пространство : YUV
    Субдискретизация насыщенности : 4:2:0
    Битовая глубина : 8 бит
    Тип развёртки : Прогрессивная
    Метод сжатия : С потерями
    Бит/(Пиксели*Кадры) : 0.166
    Размер потока : 605 Мбайт (87%)
    Библиотека кодирования : XviD 1.2.1 (UTC 2008-12-04)

    Аудио
    Идентификатор : 1
    Формат : MPEG Audio
    Версия формата : Version 1
    Профиль формата : Layer 3
    Идентификатор кодека : 55
    Идентификатор кодека/Подсказка : MP3
    Продолжительность : 1 ч. 34 м.
    Вид битрейта : Постоянный
    Битрейт : 128 Кбит/сек
    Каналы : 2 канала
    Частота : 48,0 КГц
    Метод сжатия : С потерями
    Размер потока : 86,2 Мбайт (12%)
    Выравнивание : Соединение по промежуткам
    Продолжительность промежутка : 42 мс. (1,00 видеокадр)
    Время предзагрузки промежутка : 504 мс.
    Библиотека кодирования : LAME3.99r
    Настройки программы : -m s -V 4 -q 2 -lowpass 17 -b 128
    Сценарий: Дэвид Бенулло / David Benullo
    Продюсер: Майкл Луизи / Michael Luisi, Марк Бьенсток / Marc Bienstock, Крис Фосс / Chris Foss, Ричард Лоуелл / Richard Lowell
    Оператор: Энтони С. Метчи / Anthony C. Metchie
    Композитор: Нэйтан Ферст / Nathan Furst

    Бюджет: $2 900 000

    Мировая премьера: 4 июня 2013


    © Оформление by Vetalpb.wtf



  • Скачать 12 раундов: Перезагрузка через торрент http://i6.imageban.ru/out/2013/07/12/f648edb6789372eb09c711bf279053c0.jpg Скачать фильм 12 раундов: Перезагрузка через торрент бесплантно в хорошем качестве Описание:Продолжение первого фильма, в котором полицейский Дэнни Фишер сошелся в схватке с очень опасным преступником Майлсом Джексоном. ... 9.4 10 15
    Info! Золотая раздача, скачанное не засчитывается.
    Торрент: Зарегистрирован [2013-07-12 14:36] · скачан: 764 раз
    Статус: √ проверено
    Размер: 697 MB
    Как cкачать? Как скачать 12 раундов: Перезагрузка через торрент | UTorrent

    % Раздел Тема Автор DL S | L
    Фильмы [HD 720p, 1080p] (Хороший звук DUB, MVO) [ 4.61 GB ] 12 раундов: Перезагрузка / 12 Rounds: Reloaded [2013 BDRip 720p MVO лицензия] Ke$h@ Скачать
    1 | 0
    Фильмы 2013 [DVDrip, WEB-DLRip, HDrip] [ 1.37 GB ] 12 раундов: Перезагрузка / 12 Rounds: Reloaded [2013 HDRip MVO лицензия] coc900 Скачать
    1 | 0


    Последний раз редактировалось: Ворон (2013-07-12 14:50), всего редактировалось 1 раз

    28-11-2019 20:33  

    Отключить всю рекламу на сайте

    12-07-2013 14:44 12 раундов: Перезагрузка Скачать торрент  

    Первый раз прочитал " сошелся в схватке с очень опасным преступником Майклом Джексоном"...pb.wtf



    12-07-2013 16:18 12 раундов: Перезагрузка Скачать торрент  

    уговорили, посмотрю на актерскую игру Рэндиpb.wtf



    13-07-2013 08:13 12 раундов: Перезагрузка Скачать торрент  

    tolikss330 писал(а):

    Первый раз прочитал " сошелся в схватке с очень опасным преступником Майклом Джексоном"...

    :lol:
    Я тоже ))))))))))pb.wtf



      Дорогой пользователь! Огромная просьба, поблагодарите релизера, оцените раздачу и оставьте свои комментарий, если Вы скачали 12 раундов: Перезагрузка через торрент бесплатно! Внесите свою лепту в развитие PiratBit!
      Комментировать посты могут только пользователи прошедшие не сложную регистрацию
      Показать сообщения:    

      12 раундов: Перезагрузка через торрент
      Скачать бесплатно 12 раундов: Перезагрузка
      12 раундов: Перезагрузка скачать торрент
      12 раундов: Перезагрузка смотреть онлайн
      Cкачать фильм 12 раундов: Перезагрузка бесплатно
      12 раундов: Перезагрузка скачать торрент в хорошем качестве
      12 раундов: Перезагрузка смотреть онлайн бесплатно в хорошем качестве


      Вы не можете начинать темы
      Вы не можете отвечать на сообщения
      Вы не можете редактировать свои сообщения
      Вы не можете удалять свои сообщения
      Вы не можете голосовать в опросах
      Вы не можете прикреплять файлы к сообщениям
      Вы можете скачивать файлы