Ссылка на приватное зеркало всего за 1$. Внимание количество ограничено!!!

iTunes

iTunes

iTunes

1

iTunes

iTunes

iTunes

WEBRip

iTunes

30
pack

$ от Little Big

ВАЖНО

!!Акция!!

Alien_RageХит недели

RePack

Resident Evil 21

ИГРА 18+

pack

RePack

jed

!!Акция!!

Alien_Rage

RePack

fifa19

RePack

Assassins Creed: Odyssey

RePack

NEED FOR SPEED™ PAYBACK

4 сезон

9 сезон

Бесстыжие 9 сезон

Все сериалы

все сериалы на PB.wtf

RePack

FAR CRY 5
  

Я - кукла (Юрий Кара) [2002 г., Приключенческий боевик, DVDRip] pb.wtf

Я - кукла через торрент pb.wtf

Размер: 1.37 GB | Добавлен: 7 лет назад | Торрент скачан:160 раз
Скачать  

12-07-2013 15:03 Я - кукла Скачать торрент  

Я – кукла


  • Год выпуска:2002
  • Страна: Россия
  • Жанр:боевик
  • Продолжительность: 01:39:09
  • Перевод:Не требуется

  • Субтитры: Нет
    • Режиссер: Юрий Кара
    • Продюсер:Юрий Кара
    • Сценарий:Юрий Кара

  • В ролях:Александр Домогаров (Виктор Воробьев), Ольга Сумская (Герда, инструктор, снайпер), Наталья Громушкина (Мила), Сергей Никоненко (Алексей Иванович), Николай Чиндяйкин (Начальник лагеря «кукол»), Денис Карасев (Анатолий), Алла Миронова (жена начальника лагеря «кукол»), Лариса Павлова (Фаина), Юрий Думчев (Кабанюк), Аристарх Ливанов (Полковник ФСБ), Игорь Новоселов (Мурат), Сергей Силкин (Крафт)
    • Описание:
      В сердце современной цивилизации до сих пор правят варварские законы. Спецназовец Виктор, прошедший огонь и воду, оказался за гранью рокового круга.
      В лагере смертников он приговорен к казни в рассрочку: здесь спецагенты высшего класса используют пленных в качестве живых тренажеров для совершенствования боевых навыков. Они становятся безропотными куклами, без имени и прошлого. Уцелевший получает в награду еще один день... без надежды увидеть рассвет.
      Когда прогресс останавливается и мир превращается в первобытные джунгли, когда жизнь ограничивается рингом, где молчит спасительный гонг, когда насилие уничтожает любовь, уцелеет только тот, в ком проснется неукротимый дух древних гладиаторов, способных повернуть историю вспять и разорвать нити судьбы.

  • Рейтинг
    kinopoisk.ru: 4.702 (997)
    imdb.com: 3.10 (49)
    • Качество:DVDRip
    • Формат: AVI
    • Видео кодек: DivX 5
    • Аудио кодек: AC3
    • Видео: DivX 5, 720x432 (1.667), 1517 kbps, 25 fps, 0,195 bpp
    • Аудио: русский / AC3 / 5.1 / 48 kHz / 448 kbps / 16 bit ||

    General
    Complete name : D:ТорентыJa-kukla.2002.DivX.DVDRip-BestVideo.avi
    Format : AVI
    Format/Info : Audio Video Interleave
    File size : 1.37 GiB
    Duration : 1h 39mn
    Overall bit rate : 1 972 Kbps
    Writing application : VirtualDubMod 1.5.4.1 (build 2178/release)
    Writing library : VirtualDubMod build 2178/release

    Video
    ID : 0
    Format : MPEG-4 Visual
    Format settings, BVOP : 1
    Format settings, QPel : No
    Format settings, GMC : No warppoints
    Format settings, Matrix : Default (H.263)
    Muxing mode : Packed bitstream
    Codec ID : DX50
    Codec ID/Hint : DivX 5
    Duration : 1h 39mn
    Bit rate : 1 517 Kbps
    Width : 720 pixels
    Height : 432 pixels
    Display aspect ratio : 1.667
    Frame rate : 25.000 fps
    Color space : YUV
    Chroma subsampling : 4:2:0
    Bit depth : 8 bits
    Scan type : Progressive
    Compression mode : Lossy
    Bits/(Pixel*Frame) : 0.195
    Stream size : 1.05 GiB (77%)
    Writing library : DivX 6.7.0 (UTC 2007-09-20)

    Audio
    ID : 1
    Format : AC-3
    Format/Info : Audio Coding 3
    Mode extension : CM (complete main)
    Codec ID : 2000
    Duration : 1h 39mn
    Bit rate mode : Constant
    Bit rate : 448 Kbps
    Channel(s) : 6 channels
    Channel positions : Front: L C R, Side: L R, LFE
    Sampling rate : 48.0 KHz
    Bit depth : 16 bits
    Compression mode : Lossy
    Stream size : 318 MiB (23%)
    Alignment : Split accross interleaves
    Interleave, duration : 96 ms (2.40 video frames)
    Interleave, preload duration : 96 ms
    Language : Russian
    Сценарий: Юрий Кара
    Продюсер: Юрий Кара
    Оператор: Вадим Семеновых




    © Оформление by Vetalpb.wtf



  • Скачать Я - кукла через торрент http://i6.imageban.ru/out/2013/07/12/348332b0ffe29212da55c4bfdb39adfd.jpg Скачать фильм Я - кукла через торрент бесплантно в хорошем качестве Описание:В сердце современной цивилизации до сих пор правят варварские законы. Спецназовец Виктор, прошедший огонь и воду, оказался за ... 10 10 6
    Info! Золотая раздача, скачанное не засчитывается.
    Торрент: Зарегистрирован [2013-07-12 15:03] · скачан: 160 раз
    Статус: √ проверено
    Размер: 1.37 GB
    Как cкачать? Как скачать Я - кукла через торрент | qTorrent

    % Раздел Тема Автор DL S | L
    Фильмы 2001-2005 [ 700 MB ] Я - Кукла [2001 военный DVDRip лицензия] simon162 Скачать
    1 | 0

    28-11-2019 20:33  

    Отключить всю рекламу на сайте

    12-07-2013 15:25 Я - кукла Скачать торрент  

    Vetаl писал(а):

    Видео кодек: DivX 5

    Разве нет в сети без этого, на телике точно не посмотреть :)pb.wtf



    12-07-2013 18:05 Я - кукла Скачать торрент  

    dexter lex писал(а):

    Vetаl писал(а):

    Видео кодек: DivX 5

    Разве нет в сети без этого, на телике точно не посмотреть :)

    а зачем такое вообще смотреть?)pb.wtf



      Дорогой пользователь! Огромная просьба, поблагодарите релизера, оцените раздачу и оставьте свои комментарий, если Вы скачали Я - кукла через торрент бесплатно! Внесите свою лепту в развитие PiratBit!
      Комментировать посты могут только пользователи прошедшие не сложную регистрацию
      Показать сообщения:    

      Я - кукла через торрент
      Скачать бесплатно Я - кукла
      Я - кукла скачать торрент
      Я - кукла смотреть онлайн
      Cкачать фильм Я - кукла бесплатно
      Я - кукла скачать торрент в хорошем качестве
      Я - кукла смотреть онлайн бесплатно в хорошем качестве


      Вы не можете начинать темы
      Вы не можете отвечать на сообщения
      Вы не можете редактировать свои сообщения
      Вы не можете удалять свои сообщения
      Вы не можете голосовать в опросах
      Вы не можете прикреплять файлы к сообщениям
      Вы можете скачивать файлы