Ссылка на приватное зеркало нашего сайта всего за 1$. Внимание количество ограничено!!!

2 сезон

iTunes

1 сезон

1

2 сезон

2 сезон

iTunes

1 сезон

RePack

30

Новинка

ВАЖНО

ИГРА 18+

pack

RePack

MK11
pack

Забери бонус

RePack

jed

!!Акция!!

Alien_Rage

RePack

fifa19

RePack

Assassins Creed: Odyssey

RePack

NEED FOR SPEED™ PAYBACK

4 сезон

9 сезон

Бесстыжие 9 сезон

Все сериалы

все сериалы на PB.wtf

RePack

FAR CRY 5
  

Истребитель зомби / Хуан - истребитель кубинских зомби / Juan de los Muertos / Juan of the Dead (Алехандро Бругес / Alejandro Brugués) [2011, ужасы, комедия, DVD9] R5 pb.wtf

Истребитель зомби через торрент pb.wtf

Размер: 6.22 GB | Добавлен: 7 лет 4 мес. назад | Торрент скачан:42 раза
Скачать  

12-07-2013 17:40 Истребитель зомби Скачать торрент  


Истребитель зомби / Хуан - истребитель кубинских зомби / Juan de los Muertos / Juan of the Dead
«50 years after the Cuban Revolution, a new Revolution is about to begin.»
Страна: Испания, Куба
Студия: La Zanfoña Producciones, Producciones de la 5ta Avenida
Жанр: ужасы, комедия
Год выпуска: 2011
Мировая премьера: 10 сентября 2011
Российская премьера: 11 апреля 2013
Дата выхода DVD: 13 июня 2013
Продолжительность: 01:32:07
Перевод: Профессиональный (дублированный) [Лицензия]
Cубтитры: русские
Оригинальная аудиодорожка: испанский
Режиссер: Алехандро Бругес / Alejandro Brugués
В ролях: Алексис Диаз Де Виллегас, Хорхе Молина, Андреа Дуро, Андрос Перугоррия, Джазз Вила, Элисер Рамирес, Антонио Дечент, Бланка Роза Бланко, Эльза Кэмп, Сузана Поусз
Описание: Гавана переживает эпидемию зомби. 40-летний бездельник Хуан решил заработать на этом. Под девизом «Хуан избавит вас от тех, кого вы любили» он предлагает людям за деньги избавляться от окружающих их инфицированных родственников и друзей. Но, когда эпидемия зомби накрывает всю страну, Хуан вынужден думать уже не о своем заработке, а о выживании.
Бонусы: Трейлер, Анонсы

Качество: DVD9 R5
Формат: DVD-Video
Видео кодек: MPEG2
Аудио кодек: AC3
Видео: PAL 16:9 (720x576(0.772)) MPEG Video, 25,000 кадр/сек, 8000 Кбит/сек
Аудио #1: Russian (Dolby AC3, 6 ch) 384 Кбит/сек, 48,0 КГц
Аудио #2: Espanol (Dolby AC3, 6 ch) 384 Кбит/сек, 48,0 КГц



Title: Istrebitel.zombi.2011.DVD9
Size: 6.22 Gb ( 6 520 734,00 KBytes ) - DVD-9
Enabled regions: 1, 2, 3, 4, 5, 6, 7, 8

VTS_01 :
Play Length: 00:00:10
Video: PAL 16:9 (720x576) VBR, Auto Letterboxed

VTS_02 :
Play Length: 00:00:07
Video: PAL 16:9 (720x576) VBR, Auto Letterboxed
Audio:
English (Dolby AC3, 6 ch)

VTS_03 :
Play Length: 00:01:43
Video: PAL 16:9 (720x576) VBR, Auto Letterboxed
Audio:
Russian (Dolby AC3, 2 ch)
Espanol (Dolby AC3, 2 ch)

VTS_04 :
Play Length: 00:01:25
Video: PAL 16:9 (720x576) VBR, Auto Letterboxed
Audio:
Russian (Dolby AC3, 2 ch)
English (Dolby AC3, 2 ch)

VTS_05 :
Play Length: 00:01:11
Video: PAL 16:9 (720x576) VBR, Auto Letterboxed
Audio:
Russian (Dolby AC3, 6 ch)
Russian (Dolby AC3, 6 ch)

VTS_06 :
Play Length: 00:01:58
Video: PAL 16:9 (720x576) VBR, Auto Letterboxed
Audio:
Russian (Dolby AC3, 2 ch)
Dansk (Dolby AC3, 2 ch)

VTS_07 :
Play Length: 00:01:38
Video: PAL 16:9 (720x576) VBR, Auto Letterboxed
Audio:
Russian (Dolby AC3, 6 ch)
Francais (Dolby AC3, 6 ch)

VTS_08 :
Play Length: 00:01:55
Video: PAL 16:9 (720x576) VBR, Auto Letterboxed
Audio:
Russian (Dolby AC3, 2 ch)
Deutsch (Dolby AC3, 2 ch)

VTS_09 :
Play Length: 01:32:07
Video: PAL 16:9 (720x576) VBR, Auto Pan&Scan, Auto Letterboxed
Audio:
Russian (Dolby AC3, 6 ch)
Espanol (Dolby AC3, 6 ch)
Subtitles:
Russian

* Menus Information *

VIDEO_TS Menu
Video:
PAL 16:9 (720x576) VBR
Auto Pan&Scan, Auto Letterboxed
English Language Unit :
Title Menu

VTS_01 Menu
Video:
PAL 16:9 (720x576) VBR
Auto Letterboxed
Audio:
Not specified (Dolby AC3, 2 ch)
English Language Unit :
Root Menu

VTS_02 Menu
Video:
PAL 4:3 (720x576) VBR
English Language Unit :
Root Menu

VTS_03 Menu
Video:
PAL 4:3 (720x576) VBR
English Language Unit :
Root Menu

VTS_04 Menu
Video:
PAL 4:3 (720x576) VBR
English Language Unit :
Root Menu

VTS_05 Menu
Video:
PAL 4:3 (720x576) VBR
English Language Unit :
Root Menu

VTS_06 Menu
Video:
PAL 4:3 (720x576) VBR
English Language Unit :
Root Menu

VTS_07 Menu
Video:
PAL 4:3 (720x576) VBR
English Language Unit :
Root Menu

VTS_08 Menu
Video:
PAL 4:3 (720x576) VBR
English Language Unit :
Root Menu

VTS_09 Menu
Video:
PAL 4:3 (720x576) VBR
English Language Unit :
Root Menu
Общее
Полное имя : M:Новинки 2013Istrebitel.zombi.2011.DVD9VIDEO_TSVTS_09_2.VOB
Формат : MPEG-PS
Размер файла : 1024 Мбайт
Продолжительность : 16 м.
Общий поток : 8937 Кбит/сек

Видео
Идентификатор : 224 (0xE0)
Формат : MPEG Video
Версия формата : Version 2
Профиль формата : Main@Main
Параметр BVOP формата : Да
Параметр матрицы формата : По умолчанию
Параметр GOP формата : M=3, N=12
Продолжительность : 16 м.
Битрейт : 8000 Кбит/сек
Ширина : 720 пикселей
Высота : 576 пикселей
Соотношение сторон : 16:9
Частота кадров : 25,000 кадров/сек
Стандарт вещания : PAL
Цветовое пространство : YUV
Субдискретизация насыщенности : 4:2:0
Битовая глубина : 8 бит
Тип развёртки : Прогрессивная
Метод сжатия : С потерями
Бит/(Пиксели*Кадры) : 0.772
TimeCode_FirstFrame : 00:16:01:11
TimeCode_Source : Group of pictures header
Размер потока : 915 Мбайт (89%)

Аудио #1
Идентификатор : 189 (0xBD)-128 (0x80)
Формат : AC-3
Формат/Информация : Audio Coding 3
Расширение режима : CM (complete main)
Параметр Endianness формата : Big
Режим смешивания : DVD-Video
Продолжительность : 16 м.
Вид битрейта : Постоянный
Битрейт : 384 Кбит/сек
Каналы : 6 каналов
Расположение каналов : Front: L C R, Side: L R, LFE
Частота : 48,0 КГц
Битовая глубина : 16 бит
Метод сжатия : С потерями
Задержка видео : -464 мс.
Размер потока : 44,0 Мбайт (4%)

Аудио #2
Идентификатор : 189 (0xBD)-129 (0x81)
Формат : AC-3
Формат/Информация : Audio Coding 3
Расширение режима : CM (complete main)
Параметр Endianness формата : Big
Режим смешивания : DVD-Video
Продолжительность : 16 м.
Вид битрейта : Постоянный
Битрейт : 384 Кбит/сек
Каналы : 6 каналов
Расположение каналов : Front: L C R, Side: L R, LFE
Частота : 48,0 КГц
Битовая глубина : 16 бит
Метод сжатия : С потерями
Задержка видео : -464 мс.
Размер потока : 44,0 Мбайт (4%)

Текст
Идентификатор : 189 (0xBD)-32 (0x20)
Формат : RLE
Формат/Информация : Run-length encoding
Режим смешивания : DVD-Video
Продолжительность : 15 м.
Задержка видео : 600 мс.




pb.wtf



Скачать Истребитель зомби через торрент http://s019.radikal.ru/i621/1307/2e/c2629477bf7d.jpg Скачать фильм Истребитель зомби через торрент бесплантно в хорошем качестве Описание: Гавана переживает эпидемию зомби. 40-летний бездельник Хуан решил заработать на этом. Под девизом «Хуан избавит вас от тех, кого ... 7.1 10 10
Info! Золотая раздача, скачанное не засчитывается.
Торрент: Зарегистрирован [2013-07-12 17:40] · скачан: 42 раз
Статус: √ проверено
Размер: 6.22 GB
Как cкачать? Как скачать Истребитель зомби через торрент | qTorrent

28-11-2019 20:33  

Отключить всю рекламу на сайте

13-07-2013 02:10 Истребитель зомби Скачать торрент  

Тупость это фильма, бьёт рекорды!pb.wtf



08-10-2013 14:24 Истребитель зомби Скачать торрент  

Националист писал(а):

Тупость это фильма, бьёт рекорды!

Как оно и бываетpb.wtf



    Дорогой пользователь! Огромная просьба, поблагодарите релизера, оцените раздачу и оставьте свои комментарий, если Вы скачали Истребитель зомби через торрент бесплатно! Внесите свою лепту в развитие PiratBit!
    Комментировать посты могут только пользователи прошедшие не сложную регистрацию
    Показать сообщения:    

    Истребитель зомби через торрент
    Скачать бесплатно Истребитель зомби
    Истребитель зомби скачать торрент
    Истребитель зомби смотреть онлайн
    Cкачать фильм Истребитель зомби бесплатно
    Истребитель зомби скачать торрент в хорошем качестве
    Истребитель зомби смотреть онлайн бесплатно в хорошем качестве


    Вы не можете начинать темы
    Вы не можете отвечать на сообщения
    Вы не можете редактировать свои сообщения
    Вы не можете удалять свои сообщения
    Вы не можете голосовать в опросах
    Вы не можете прикреплять файлы к сообщениям
    Вы можете скачивать файлы