1 сезон

1 сезон

iTunes

1

КиноПоиск HD

Кинопоиск HD

iTunes

13

1 сезон

RePack

30

Ultimate

ВАЖНО

ИГРА 18+

pack

RePack

MK11
pack

Легкие деньги

RePack

jed

RePack

fifa19

RePack

RDR2

RePack

NEED FOR SPEED™ PAYBACK

4 сезон

9 сезон

Бесстыжие 9 сезон

Все сериалы

все сериалы на PB.wtf

RePack

FAR CRY 5
  
Magnet ссылка

О Шмидте / About Schmidt (Александр Пэйн) [2002 г., драма, комедия, WEB-DLRip, Профессиональный + Оригинал] pb.wtf

О Шмидте через торрент pb.wtf

Размер: 2.19 GB | Добавлен: 7 лет 8 мес. назад | Торрент скачан:57 раз
Скачать  

13-07-2013 06:15 О Шмидте Скачать торрент  

О Шмидте / About Schmidt Год выпуска: 2002
Страна: США
Производство: Avery Pix, New Line Cinema
Жанр: драма, комедия
Продолжительность: 02:05:21
Перевод: Профессиональный|Многоголосый закадровый, iTunes Russia| + Оригинал

Режиссер: Александр Пэйн
Продюссер: Билл Бадалато, Майкл Бесман, Гарри Гиттс
Сценарий: Александр Пэйн, Джим Тейлор, Луис Бегли
Бюджет: $30 000 000
Премьера в мире: 22 мая 2002



В ролях: Джек Николсон, Кэти Бейтс, Хоуп Дэвис, Дермот Малруни, Джун Скуиб, Ховард Хессеман, Гарри Гронер, Конни Рэй, Лен Кариу, Марк Венхуизен,

Описание: История Уоррена Шмидта, работающего в страховой компании. После ухода на покой, он начинает переосмысливать прожитую жизнь, пытаясь понять, смог ли он достичь всех своих мечтаний в карьере, браке и семейной жизни.Дочь Уоррена почти не общается с ним, живет в Денвере и собирается выйти замуж за человека, которого он не одобряет. Что же делать? Шмидт отправляется в поездку через всю страну, чтобы остановить эту свадьбу, а заодно и найти смысл своей собственной жизни.

Доп. информация:
  • Сцена, в которой Николсон спит в ванной — намёк на неоклассическую картину Жака-Луи Давида «Смерть Марата».
  • Фильм основан на одноименном романе Луиса Бегли 1996 года, хотя все что их связывает — название и имя главного героя (Уоррена Шмидта). Все остальные детали — профессия Шмидта, место жительства, причина смерти его жены и другое — изменены. Важные элементы сюжета книги, такие как его связь с Кэрри, его отношение к евреям и к продаже своего дома, в фильме не отражены.
  • Фил Ривз, сыгравший роль священника на свадьбе, появлялся и в другом фильме Александра Пейна — «Выскочке» 1999 года — в роли директора школы.



    Сэмпл / Трейлер

  • Качество: WEB-DLRip
  • Формат: AVI
  • Видео кодек: XviD
  • Аудио кодек: AC3
  • Видео: MPEG4, XviD, 720x400 (16:9), 23.976 fps, 1 840 Kbps (0.267 bit/pixel)
  • Аудио#1: AC-3, 48.0 KHz, 6 ch, 384 Kbps, CBR (Russian)
  • Аудио#2: AC-3, 48.0 KHz, 2 ch, 256 Kbps, CBR (English)
    Формат : AVI
    Формат/Информация : Audio Video Interleave
    Профиль формата : OpenDML
    Размер файла : 2,19 Гбайт
    Продолжительность : 2 ч. 5 м.
    Общий поток : 2498 Кбит/сек
    Название фильма : About Schmidt
    Жанр : Drama, comedy
    Программа кодирования : VirtualDubModRus 1.5.10.2 (build 2542/release)
    Формат оригинала/Имя : Movie
    Примечание : Rip ot kep

    Видео
    Идентификатор : 0
    Формат : MPEG-4 Visual
    Профиль формата : Advanced Simple@L5
    Параметр BVOP формата : 1
    Параметр QPel формата : Нет
    Параметр GMC формата : Без точки перехода
    Параметр матрицы формата : Default (MPEG)
    Идентификатор кодека : XVID
    Идентификатор кодека/Подсказка : XviD
    Продолжительность : 2 ч. 5 м.
    Битрейт : 1840 Кбит/сек
    Ширина : 720 пикселей
    Высота : 400 пикселей
    Соотношение сторон : 16:9
    Частота кадров : 23,976 кадра/сек
    Цветовое пространство : YUV
    Субдискретизация насыщенности : 4:2:0
    Битовая глубина : 8 бит
    Тип развёртки : Прогрессивная
    Метод сжатия : С потерями
    Бит/(Пиксели*Кадры) : 0.267
    Размер потока : 1,61 Гбайт (74%)
    Библиотека кодирования : XviD 73

    Аудио #1
    Идентификатор : 1
    Формат : AC-3
    Формат/Информация : Audio Coding 3
    Расширение режима : CM (complete main)
    Параметр Endianness формата : Big
    Идентификатор кодека : 2000
    Продолжительность : 2 ч. 5 м.
    Вид битрейта : Постоянный
    Битрейт : 384 Кбит/сек
    Каналы : 6 каналов
    Расположение каналов : Front: L C R, Side: L R, LFE
    Частота : 48,0 КГц
    Битовая глубина : 16 бит
    Метод сжатия : С потерями
    Размер потока : 344 Мбайт (15%)
    Выравнивание : Разделение по промежуткам
    Продолжительность промежутка : 42 мс. (1,00 видеокадр)
    Время предзагрузки промежутка : 500 мс.
    Заголовок : Russian

    Аудио #2
    Идентификатор : 2
    Формат : AC-3
    Формат/Информация : Audio Coding 3
    Расширение режима : CM (complete main)
    Параметр Endianness формата : Big
    Идентификатор кодека : 2000
    Продолжительность : 2 ч. 5 м.
    Вид битрейта : Постоянный
    Битрейт : 256 Кбит/сек
    Каналы : 2 канала
    Расположение каналов : Front: L R
    Частота : 48,0 КГц
    Битовая глубина : 16 бит
    Метод сжатия : С потерями
    Размер потока : 230 Мбайт (10%)
    Выравнивание : Разделение по промежуткам
    Продолжительность промежутка : 42 мс. (1,00 видеокадр)
    Время предзагрузки промежутка : 500 мс.
    Заголовок : English
    скриншот   скриншот   скриншот   скриншот   скриншот  pb.wtf



  • Скачать О Шмидте через торрент http://i3.imageban.ru/out/2013/07/13/63e33b3d8a7722cb19e4bbe02a0a1310.png Скачать фильм О Шмидте через торрент бесплантно в хорошем качестве Описание: История Уоррена Шмидта, работающего в страховой компании. После ухода на покой, он начинает переосмысливать прожитую жизнь, ... 10 10 1
    Info! Золотая раздача, скачанное не засчитывается.
    Торрент: Зарегистрирован [2013-07-13 06:15] · скачан: 57 раз
    Статус: √ проверено
    Размер: 2.19 GB
    Как cкачать? Как скачать О Шмидте через торрент | UTorrent

    % Раздел Тема Автор DL S | L
    Фильмы до 2000 г. [ 2.92 GB ] О Шмидте / About Schmidt [2002 BDRip-AVC] MVO DVO msltel Скачать
    1 | 0
    Фильмы [HD 720p, 1080p] (Хороший звук DUB, MVO) [ 11.59 GB ] О Шмидте / About Schmidt [2002 BDRip 1080p] MVO DVO msltel Скачать
    1 | 0
    Фильмы [HD 720p, 1080p] (Хороший звук DUB, MVO) [ 5.23 GB ] О Шмидте / About Schmidt [2002 BDRip 720p] MVO DVO msltel Скачать
    1 | 0

    28-11-2019 20:33  

    Отключить всю рекламу на сайте

      Дорогой пользователь! Огромная просьба, поблагодарите релизера, оцените раздачу и оставьте свои комментарий, если Вы скачали О Шмидте через торрент бесплатно! Внесите свою лепту в развитие PiratBit!
      Комментировать посты могут только пользователи прошедшие не сложную регистрацию
      Показать сообщения:    

      О Шмидте через торрент
      Скачать бесплатно О Шмидте
      О Шмидте скачать торрент
      О Шмидте смотреть онлайн
      Cкачать фильм О Шмидте бесплатно
      О Шмидте скачать торрент в хорошем качестве
      О Шмидте смотреть онлайн бесплатно в хорошем качестве


      Вы не можете начинать темы
      Вы не можете отвечать на сообщения
      Вы не можете редактировать свои сообщения
      Вы не можете удалять свои сообщения
      Вы не можете голосовать в опросах
      Вы не можете прикреплять файлы к сообщениям
      Вы можете скачивать файлы