Ссылка на приватное зеркало нашего сайта всего за 1$. Внимание количество ограничено!!!

2 сезон

iTunes

1 сезон

1

iTunes

iTunes

iTunes

1 сезон

RePack

30

ИГРА 18+

pack

ВАЖНО

!!Акция!!

Alien_RageХит недели

RePack

MK11
pack

Забери бонус

RePack

jed

!!Акция!!

Alien_Rage

RePack

fifa19

RePack

Assassins Creed: Odyssey

RePack

NEED FOR SPEED™ PAYBACK

4 сезон

9 сезон

Бесстыжие 9 сезон

Все сериалы

все сериалы на PB.wtf

RePack

FAR CRY 5
  

G.I. Joe: Бросок кобры 2[Театральная версия] / G.I. Joe: Retaliation[Theatrical cut] (Джон М. Чу) [2013 г., фантастика, боевик, триллер, приключения, BDRip 720p, Дубляж + Оригинал] pb.wtf

G.I. Joe: Бросок кобры 2 через торрент pb.wtf

Размер: 5.8 GB | Добавлен: 7 лет 3 мес. назад | Торрент скачан:190 раз
Скачать  

13-07-2013 16:41 G.I. Joe: Бросок кобры 2 Скачать торрент  

G.I. Joe: Бросок кобры 2[Театральная версия] / G.I. Joe: Retaliation[Theatrical cut]
Год выпуска: 2013
Страна: США
Жанр: фантастика, боевик, триллер, приключения,
Продолжительность: 01:50:14
Перевод: Дубляж + Оригинал (Лицензия)
Субтитры: русские, украинские, английские

Режиссер: Джон М. Чу

Премьера в мире: 27 марта 2013




В ролях: Дуэйн Джонсон, Эдрианн Палики, Брюс Уиллис, Рэй Парк, Ли Бён Хон, Д.Дж. Котрона, Джонатан Прайс, Элоди Юнг, Ченнинг Татум, Люк Брейси,

Описание: Во второй части отряд «G.I. Joe» вновь объявит вызов группировке «Кобра» и вступит в противостояние с правительством...

Качество: BDRip 720p
Формат: MKV
Видео кодек: H.264
Аудио кодек: AC3
Видео: 1280x534р (2,40:1), 23.976 fps,MPEG4 Video (H264),~ 6104 kbps avg (0.372 bit/pixel)

Аудио#1: русский 48 kHz, AC3, 3/2 (L,C,R,l,r) + LFE ch, ~640.00 kbps avg |Дубляж, Blu-ray CEE|
Аудио#2:английский 48 kHz, AC3, 3/2 (L,C,R,l,r) + LFE ch, ~640.00 kbps avg Оригинал





Общее
Уникальный идентификатор : 255046982425970702562027319856682142203 (0xBFE04316E313BAE8B5107910772289FB)
Полное имя : D:G.I.Joe.Retaliation 720р.mkv
Формат : Matroska
Версия формата : Version 2
Размер файла : 5,80 Гбайт
Продолжительность : 1 ч. 50 м.
Общий поток : 7534 Кбит/сек
Дата кодирования : UTC 2013-07-13 15:29:06
Программа кодирования : mkvmerge v4.4.0 ('Die Wiederkehr') сборка от Oct 31 2010 21:52:48
Библиотека кодирования : libebml v1.0.0 + libmatroska v1.0.0

Видео
Идентификатор : 1
Формат : AVC
Формат/Информация : Advanced Video Codec
Профиль формата : High@L4.1
Параметр CABAC формата : Да
Параметр ReFrames формата : 12 кадров
Режим смешивания : Header stripping
Идентификатор кодека : V_MPEG4/ISO/AVC
Продолжительность : 1 ч. 50 м.
Битрейт : 6104 Кбит/сек
Ширина : 1280 пикселей
Высота : 534 пикселя
Соотношение сторон : 2,40:1
Режим частоты кадров : Постоянный
Частота кадров : 23,976 кадра/сек
Цветовое пространство : YUV
Субдискретизация насыщенности : 4:2:0
Битовая глубина : 8 бит
Тип развёртки : Прогрессивная
Бит/(Пиксели*Кадры) : 0.372
Размер потока : 4,70 Гбайт (81%)
Библиотека кодирования : x264 core 132 r2323+704+51 d571b1c tMod [8-bit@4:2:0 X86_64]
Настройки программы : cabac=1 / ref=12 / deblock=1:-3:-3 / analyse=0x3:0x113 / me=umh / subme=10 / psy=1 / fade_compensate=0.00 / psy_rd=1.02:0.00 / mixed_ref=1 / me_range=32 / chroma_me=1 / trellis=2 / 8x8dct=1 / cqm=0 / deadzone=21,11 / fast_pskip=0 / chroma_qp_offset=-2 / threads=12 / lookahead_threads=1 / sliced_threads=0 / nr=0 / decimate=0 / interlaced=0 / bluray_compat=0 / constrained_intra=0 / fgo=0 / bframes=5 / b_pyramid=2 / b_adapt=2 / b_bias=0 / direct=3 / weightb=1 / open_gop=0 / weightp=2 / keyint=240 / keyint_min=24 / scenecut=40 / intra_refresh=0 / rc_lookahead=120 / rc=crf / mbtree=1 / crf=17.6000 / qcomp=0.70 / qpmin=0 / qpmax=69 / qpstep=4 / ip_ratio=1.20 / aq=4:0.80 / aq-sensitivity=10.00 / aq-factor=1.00:1.00:1.00 / aq2=0 / aq3=0
Язык : English
Default : Да
Forced : Нет

Аудио #1
Идентификатор : 2
Формат : AC-3
Формат/Информация : Audio Coding 3
Расширение режима : CM (complete main)
Параметр Endianness формата : Big
Режим смешивания : Header stripping
Идентификатор кодека : A_AC3
Продолжительность : 1 ч. 50 м.
Вид битрейта : Постоянный
Битрейт : 640 Кбит/сек
Каналы : 6 каналов
Расположение каналов : Front: L C R, Side: L R, LFE
Частота : 48,0 КГц
Битовая глубина : 16 бит
Метод сжатия : С потерями
Размер потока : 505 Мбайт (8%)
Заголовок : AC3 5.1 @ 640 kbps - DUB, CEE
Язык : Russian
Default : Да
Forced : Нет

Аудио #2
Идентификатор : 3
Формат : AC-3
Формат/Информация : Audio Coding 3
Расширение режима : CM (complete main)
Параметр Endianness формата : Big
Режим смешивания : Header stripping
Идентификатор кодека : A_AC3
Продолжительность : 1 ч. 50 м.
Вид битрейта : Постоянный
Битрейт : 640 Кбит/сек
Каналы : 6 каналов
Расположение каналов : Front: L C R, Side: L R, LFE
Частота : 48,0 КГц
Битовая глубина : 16 бит
Метод сжатия : С потерями
Размер потока : 505 Мбайт (8%)
Заголовок : AC3 5.1 @ 640 kbps
Язык : English
Default : Нет
Forced : Нет

Текст #1
Идентификатор : 4
Формат : UTF-8
Идентификатор кодека : S_TEXT/UTF8
Идентификатор кодека/Информация : UTF-8 Plain Text
Язык : Russian
Default : Нет
Forced : Нет

Текст #2
Идентификатор : 5
Формат : UTF-8
Идентификатор кодека : S_TEXT/UTF8
Идентификатор кодека/Информация : UTF-8 Plain Text
Язык : Ukrainian
Default : Нет
Forced : Нет

Текст #3
Идентификатор : 6
Формат : UTF-8
Идентификатор кодека : S_TEXT/UTF8
Идентификатор кодека/Информация : UTF-8 Plain Text
Язык : English
Default : Нет
Forced : Нет


G.I. Joe: Бросок кобры 2[Театральная версия] скачать торрент


pb.wtf



Скачать G.I. Joe: Бросок кобры 2 через торрент http://pic.kartinco.top/images/3/82w6djds61.png Скачать фильм G.I. Joe: Бросок кобры 2[Театральная версия] через торрент бесплантно в хорошем качестве Описание: Во второй части отряд «G.I. Joe» вновь объявит вызов группировке «Кобра» и вступит в противостояние с ... 9.9 10 11
Info! Золотая раздача, скачанное не засчитывается.
Торрент: Зарегистрирован [2013-07-13 16:41] · скачан: 190 раз
Статус: √ проверено
Размер: 5.8 GB
Как cкачать? Как скачать G.I. Joe: Бросок кобры 2 через торрент | qTorrent

% Раздел Тема Автор DL S | L
Фильмы [HD 720p, 1080p] (Хороший звук DUB, MVO) [ 7.46 GB ] G.I. Joe: Бросок кобры 2 / G.I. Joe: Retaliation [2013 BDRip 1080p HEVC ()] Мичман37 Скачать
1 | 0
Ultra HD (UHD: 2K, 4K, 8K) — видео сверхвысокой чёткости [ 46.07 GB ] G.I. Joe: Бросок кобры 2 / G.I. Joe: Retaliation [2013 UHD BDRemux 2160p] DUB [Dolby Vision TV] [Театральная версия] sheker187 Скачать
1 | 0
T Фильмы [HD 720p, 1080p] (Хороший звук DUB, MVO) [ 4.75 GB ] G.I. Joe: Бросок кобры 2 / G.I. Joe: Retaliation [EXTENDED] [2013 BDRip 720p [ Чистый звук] Ворон Скачать
1 | 0
Ultra HD (UHD: 2K, 4K, 8K) — видео сверхвысокой чёткости [ 54.11 GB ] G.I. Joe: Бросок кобры 2 / G.I. Joe: Retaliation [2013 UHD BDRemux 2160p] [Dolby Vision] [Театральная версия] sheker187 Скачать
1 | 0
Ultra HD (UHD: 2K, 4K, 8K) — видео сверхвысокой чёткости [ 61.35 GB ] G.I. Joe: Бросок кобры 2 / G.I. Joe: Retaliation [2013 UHD Blu-ray EUR 2160p] [Dolby Vision] [Театральная версия] sheker187 Скачать
1 | 0
Фильмы с авторской озвучкой [ 2.91 GB ] G.I. Joe: Бросок кобры 2 / G.I. Joe: Retaliation [2013 BDRip-AVC] [Extended] AVO [А.Гаврилов] potroks Скачать
1 | 0
3D Фильмы [ 6.88 GB ] G.I. Joe: Бросок кобры 2 в 3D / G.I. Joe: Retaliation in 3D [2013 BDRip 1080p + Оригинал] Анаглиф slaventi-69 Скачать
1 | 0


Последний раз редактировалось: lev1244v (2013-07-13 16:58), всего редактировалось 2 раз(а)

28-11-2019 20:33  

Отключить всю рекламу на сайте

13-07-2013 16:48 G.I. Joe: Бросок кобры 2 Скачать торрент  

и че тут театрального?pb.wtf



13-07-2013 16:51 G.I. Joe: Бросок кобры 2 Скачать торрент  

lev1244v
Полного источника не было: Никогда

Вы опять за старое?

lev1244v писал(а):

~7007 kbps

lev1244v писал(а):

Битрейт : 6104 Кбит/сек

Правим как в МИ.pb.wtf





Последний раз редактировалось: Ворон (2013-07-13 16:56), всего редактировалось 1 раз

13-07-2013 16:52 G.I. Joe: Бросок кобры 2 Скачать торрент  

redflag писал(а):

и че тут театрального?

Эту версию показывали в кинотеатрах.pb.wtf



13-07-2013 19:15 G.I. Joe: Бросок кобры 2 Скачать торрент  

Это BDRip 720p? А со звуком что?
Дружно ждём 1 августа!pb.wtf



    Дорогой пользователь! Огромная просьба, поблагодарите релизера, оцените раздачу и оставьте свои комментарий, если Вы скачали G.I. Joe: Бросок кобры 2 через торрент бесплатно! Внесите свою лепту в развитие PiratBit!
    Комментировать посты могут только пользователи прошедшие не сложную регистрацию
    Показать сообщения:    

    G.I. Joe: Бросок кобры 2 через торрент
    Скачать бесплатно G.I. Joe: Бросок кобры 2
    G.I. Joe: Бросок кобры 2 скачать торрент
    G.I. Joe: Бросок кобры 2 смотреть онлайн
    Cкачать фильм G.I. Joe: Бросок кобры 2 бесплатно
    G.I. Joe: Бросок кобры 2 скачать торрент в хорошем качестве
    G.I. Joe: Бросок кобры 2 смотреть онлайн бесплатно в хорошем качестве


    Вы не можете начинать темы
    Вы не можете отвечать на сообщения
    Вы не можете редактировать свои сообщения
    Вы не можете удалять свои сообщения
    Вы не можете голосовать в опросах
    Вы не можете прикреплять файлы к сообщениям
    Вы можете скачивать файлы