2 сезон

iTunes

MVO

1

2 сезон

iTunes

iTunes

1 сезон

RePack

30

Ultimate

ВАЖНО

ИГРА 18+

pack

RePack

MK11
pack

Легкие деньги

RePack

jed

RePack

fifa19

RePack

RDR2

RePack

NEED FOR SPEED™ PAYBACK

4 сезон

9 сезон

Бесстыжие 9 сезон

Все сериалы

все сериалы на PB.wtf

RePack

FAR CRY 5

Anonymous, добрый вечер, мы не успеваем собрать деньги на оплату серверов за декабрь и январь, помогите нам пожалуйста в это трудное время. В качестве благодарности мы отключим Вам всю рекламу на сайте (укажите свой ник в строку Ваше имя)!

×
  
Magnet ссылка

Гнев Титанов / Wrath of the Titans (Джонатан Либесман) [2012 г., Фэнтези, Боевик, Приключения, BDRip (1080p), DUB (лицензия)] / Вертикальная анаморфная стереопара pb.wtf

Гнев Титанов через торрент pb.wtf

Размер: 15.31 GB | Добавлен: 8 лет 6 мес. назад | Торрент скачан:988 раз
Скачать  

18-07-2012 08:03 Гнев Титанов Скачать торрент  

Гнев Титанов / Wrath of the Titans

Год выпуска: 2012
Страна: США
Жанр: Фэнтези, Боевик, Приключения
Продолжительность: 01:39:31
Перевод: Дубляж (Лицензия)
Тип релиза: Лицензия

Режиссер: Джонатан Либесман
Продюссер: Бэзил Иваник, Полли Коэн, Кевин Де Ла Ной, ...
Сценарий: Дэн Мазо, Дэвид Джонсон, Беверли Кросс, ...

Бюджет: $150 000 000
Премьера в мире: 28 марта 2012

В ролях: Сэм Уортингтон / Sam Worthington (Perseus), Лиам Нисон / Liam Neeson (Zeus), Рэйф Файнс / Ralph Fiennes (Hades), Эдгар Рамирез / Edgar Ramirez (Ares), Тоби Кеббелл / Toby Kebbell (Agenor), Розамунд Пайк / Rosamund Pike (Andromeda), Билл Найи / Bill Nighy (Hephaestus), Дэнни Хьюстон / Danny Houston (Poseidon), Джон Белл / John Bell (Helius), Лили Джеймс / Lily James (Korrina), Алехандро Нараньо / Alejandro Naranjo (Mantius), Freddy Drabble

Описание: Прошло десять лет после того, как Персей победил морское чудовище - Кракена, теперь он живет спокойной жизнью деревенского рыбака и воспитывает своего 10-летнего сына.
Тем временем, бушует борьба за превосходство между Богами и Титанами. Опасно ослабленные нехваткой человеческой любви и преданности, Боги теряют контроль над заключенными в тюрьму Титанами и их свирепым лидером, Кроносом, отцом правящих братьев Зевса, Аида и Посейдона. Давным-давно триумвират сверг своего сильного отца, отправив его гнить в мрачную пропасть Тартар, темницу, находящуюся в глубинах подземного мира.
Персей не может остаться в стороне, когда Аид вместе с сыном Зевса, Аресом, заключают сделку с Кроносом, чтобы вместе уничтожить Зевса. Сила Титанов становится ещё больше, в то время как Зевс теряет свою мощь и Влacть, а по Земле раскидывается ад подземного мира.
Вместе с Андромедой, полубогом Агенором, сыном Посейдона и низвергнутым богом Гефестом, Персей отправляется в опасное и отважное путешествие в подземный мир, чтобы спасти Зевса, свергнуть Титанов и сохранить людской род.

Качество: BDRip (1080p)
Формат: MKV
Формат 3D: Half OverUnder / Вертикальная анаморфная стереопара
Порядок ракурсов: левый ракурс первый
Видео кодек: x264
Аудио кодек: AC3
Видео: AVC / 23,976 fps / 16:9 / 1920х1080 / 20.2 Mbps
Аудио#1: Русский / AC3 Dolby Digital / 48 KHz / 448 kbps
Аудио#2: Украинский / AC3 Dolby Digital / 6 ch / 48 KHz / 448 kbps
Аудио#3: Английский / AC3 Dolby Digital / 6 ch / 48 KHz / 448 kbps
General
Unique ID : 246416867999591734673265033359170262287 (0xB9622998D484DAB9B39E3249BE9CD50F)
Complete name : G:\фильмы\Гнев Титанов.mkv
Format : Matroska
Format version : Version 2
File size : 15.3 GiB
Duration : 1h 39mn
Overall bit rate : 22.0 Mbps
Encoded date : UTC 2012-07-16 16:43:42
Writing application : mkvmerge v3.4.0 ('Rapunzel') сборка от May 15 2010 09:38:20
Writing library : libebml v0.8.0 + libmatroska v0.9.0

Video
ID : 1
Format : AVC
Format/Info : Advanced Video Codec
Format profile : High@L4.1
Format settings, CABAC : Yes
Format settings, ReFrames : 4 frames
Codec ID : V_MPEG4/ISO/AVC
Duration : 1h 39mn
Bit rate : 20.2 Mbps
Width : 1 920 pixels
Height : 1 080 pixels
Display aspect ratio : 16:9
Frame rate : 23.976 fps
Color space : YUV
Chroma subsampling : 4:2:0
Bit depth : 8 bits
Scan type : Progressive
Bits/(Pixel*Frame) : 0.407
Stream size : 14.1 GiB (92%)
Title : Rip by SeRoGa00
Writing library : x264 core 125 r2200 999b753
Encoding settings : cabac=1 / ref=4 / deblock=1:-1:-1 / analyse=0x3:0x133 / me=umh / subme=9 / psy=1 / psy_rd=1.00:0.15 / mixed_ref=1 / me_range=16 / chroma_me=1 / trellis=2 / 8x8dct=1 / cqm=0 / deadzone=21,11 / fast_pskip=1 / chroma_qp_offset=-3 / threads=6 / lookahead_threads=1 / sliced_threads=0 / nr=0 / decimate=1 / interlaced=0 / bluray_compat=0 / constrained_intra=0 / bframes=6 / b_pyramid=2 / b_adapt=2 / b_bias=0 / direct=3 / weightb=1 / open_gop=0 / weightp=2 / keyint=250 / keyint_min=23 / scenecut=40 / intra_refresh=0 / rc_lookahead=60 / rc=crf / mbtree=1 / crf=18.0 / qcomp=0.60 / qpmin=10 / qpmax=69 / qpstep=4 / vbv_maxrate=40000 / vbv_bufsize=40000 / crf_max=0.0 / nal_hrd=none / ip_ratio=1.40 / aq=1:1.00
Language : English
Default : Yes
Forced : No

Audio #1
ID : 2
Format : AC-3
Format/Info : Audio Coding 3
Mode extension : CM (complete main)
Format settings, Endianness : Big
Codec ID : A_AC3
Duration : 1h 39mn
Bit rate mode : Constant
Bit rate : 448 Kbps
Channel(s) : 6 channels
Channel positions : Front: L C R, Side: L R, LFE
Sampling rate : 48.0 KHz
Bit depth : 16 bits
Compression mode : Lossy
Stream size : 319 MiB (2%)
Language : Russian
Default : Yes
Forced : No

Audio #2
ID : 3
Format : AC-3
Format/Info : Audio Coding 3
Mode extension : CM (complete main)
Format settings, Endianness : Big
Codec ID : A_AC3
Duration : 1h 39mn
Bit rate mode : Constant
Bit rate : 448 Kbps
Channel(s) : 6 channels
Channel positions : Front: L C R, Side: L R, LFE
Sampling rate : 48.0 KHz
Bit depth : 16 bits
Compression mode : Lossy
Stream size : 319 MiB (2%)
Language : Ukrainian
Default : No
Forced : No

Audio #3
ID : 4
Format : AC-3
Format/Info : Audio Coding 3
Mode extension : CM (complete main)
Format settings, Endianness : Big
Codec ID : A_AC3
Duration : 1h 39mn
Bit rate mode : Constant
Bit rate : 448 Kbps
Channel(s) : 6 channels
Channel positions : Front: L C R, Side: L R, LFE
Sampling rate : 48.0 KHz
Bit depth : 16 bits
Compression mode : Lossy
Stream size : 319 MiB (2%)
Language : English
Default : No
Forced : No

pb.wtf



Скачать Гнев Титанов через торрент http://i40.fastpic.ru/big/2012/0715/ad/17a3f2d7fab7f62f5a6362af365756ad.jpg Скачать фильм Гнев Титанов через торрент бесплантно в хорошем качестве Описание: Прошло десять лет после того, как Персей победил морское чудовище - Кракена, теперь он живет спокойной жизнью деревенского рыбака ... 9.8 10 24
Info! Золотая раздача, скачанное не засчитывается.
Торрент: Зарегистрирован [2012-07-18 08:03] · скачан: 988 раз
Статус: √ проверено
Размер: 15.31 GB
Как cкачать? Как скачать Гнев Титанов через торрент | UTorrent

28-11-2019 20:33  

Отключить всю рекламу на сайте

    Дорогой пользователь! Огромная просьба, поблагодарите релизера, оцените раздачу и оставьте свои комментарий, если Вы скачали Гнев Титанов через торрент бесплатно! Внесите свою лепту в развитие PiratBit!
    Комментировать посты могут только пользователи прошедшие не сложную регистрацию
    Показать сообщения:    

    Гнев Титанов через торрент
    Скачать бесплатно Гнев Титанов
    Гнев Титанов скачать торрент
    Гнев Титанов смотреть онлайн
    Cкачать фильм Гнев Титанов бесплатно
    Гнев Титанов скачать торрент в хорошем качестве
    Гнев Титанов смотреть онлайн бесплатно в хорошем качестве


    Вы не можете начинать темы
    Вы не можете отвечать на сообщения
    Вы не можете редактировать свои сообщения
    Вы не можете удалять свои сообщения
    Вы не можете голосовать в опросах
    Вы не можете прикреплять файлы к сообщениям
    Вы можете скачивать файлы