Ссылка на приватное зеркало нашего сайта всего за 1$. Внимание количество ограничено!!!

2 сезон

iTunes

1 сезон

1

2 сезон

2 сезон

iTunes

1 сезон

RePack

30

Новинка

ВАЖНО

ИГРА 18+

pack

RePack

MK11
pack

Забери бонус

RePack

jed

!!Акция!!

Alien_Rage

RePack

fifa19

RePack

Assassins Creed: Odyssey

RePack

NEED FOR SPEED™ PAYBACK

4 сезон

9 сезон

Бесстыжие 9 сезон

Все сериалы

все сериалы на PB.wtf

RePack

FAR CRY 5
  

Слова / The Words (Брайан Клагман, Ли Стернтал) [2012 г., драма, мелодрама, BDRip-AVC, Дубляж, лицензия] pb.wtf

Слова через торрент pb.wtf

Размер: 2.19 GB | Добавлен: 7 лет 4 мес. назад | Торрент скачан:395 раз
Скачать  

15-07-2013 22:19 Слова Скачать торрент  

Слова / The Words
  • Год выпуска: 2012
  • Страна: США / Also Known As Pictures, Benaroya Pictures, Animus Films
  • Жанр: драма, мелодрама
  • Продолжительность: 01:42:41
  • Перевод: Дубляж, Лицензия
  • Субтитры: Английские, русские |отключаемые|

  • Режиссер: Брайан Клагман Ли Стернтал
  • Продюссер: Майкл Бенаройя, Татьяна Келли, Джеймс М. Янг
  • Сценарий: Брайан Клагман, Ли Стернтал

  • Бюджет: $6 000 000




  • В ролях: Брэдли Купер, Джереми Айронс, Оливия Уайлд, Зои Салдана, Деннис Куэйд, Брайан Клагман, Джон Ханна, Вито Филлипо, Майкл МакКин, Люсинда Дэвис

  • Описание: Рори Джэнсен — писатель, который наконец обретает долгожданную известность, но его роман-бестселлер оказывается написан другим человеком, которому он теперь должен заплатить высокую цену за украденные у него жизнь и работу.

  • Качество: BDRip-AVC
  • Формат: MKV
  • Видео кодек: H.264
  • Аудио кодек: AC3
  • Видео: H.264, 1012x546 (1,85:1), 23.976 fps, 2281 Кbps, 0.172 bit/pixel
  • Аудио#1: 48 kHz, AC3 Dolby Digital, 3/2 (L,C,R,l,r) + LFE ch, 384.00 kbps | RUS
  • Аудио#2: 48 kHz, AC3 Dolby Digital, 3/2 (L,C,R,l,r) + LFE ch, 384.00 kbps | ENG











    D:Slova.2012.D.BDRip.x264.potroks.mkv
    General
    Unique ID : 171431962895998079496559577451247183352 (0x80F89856F1779A84BAF76BF9690825F8)
    Complete name : D:Slova.2012.D.BDRip.x264.potroks.mkv
    Format : Matroska
    Format version : Version 2
    File size : 2.19 GiB
    Duration : 1h 42mn
    Overall bit rate : 3 047 Kbps
    Movie name : -=POTROKS=-
    Encoded date : UTC 2013-06-01 04:00:21
    Writing application : mkvmerge v5.9.0 ('On The Loose') built on Dec 15 2012 16:39:58
    Writing library : libebml v1.3.0 + libmatroska v1.4.0
    Video #1
    ID : 1
    Format : AVC
    Format/Info : Advanced Video Codec
    Format profile : High@L4.1
    Format settings, CABAC : Yes
    Format settings, ReFrames : 13 frames
    Codec ID : V_MPEG4/ISO/AVC
    Duration : 1h 42mn
    Bit rate : 2 281 Kbps
    Width : 1 012 pixels
    Height : 546 pixels
    Display aspect ratio : 1.85:1
    Frame rate : 23.976 fps
    Color space : YUV
    Chroma subsampling : 4:2:0
    Bit depth : 8 bits
    Scan type : Progressive
    Bits/(Pixel*Frame) : 0.172
    Stream size : 1.59 GiB (73%)
    Title : The Words
    Writing library : x264 core 125 r2208 d9d2288
    Encoding settings : cabac=1 / ref=13 / deblock=1:-3:-2 / analyse=0x3:0x133 / me=umh / subme=11 / psy=1 / psy_rd=1.07:0.01 / mixed_ref=1 / me_range=48 / chroma_me=1 / trellis=2 / 8x8dct=1 / cqm=0 / deadzone=21,11 / fast_pskip=0 / chroma_qp_offset=-3 / threads=9 / lookahead_threads=1 / sliced_threads=0 / nr=0 / decimate=1 / interlaced=0 / bluray_compat=0 / constrained_intra=0 / bframes=13 / b_pyramid=2 / b_adapt=2 / b_bias=0 / direct=3 / weightb=1 / open_gop=0 / weightp=2 / keyint=240 / keyint_min=23 / scenecut=40 / intra_refresh=0 / rc_lookahead=150 / rc=2pass / mbtree=1 / bitrate=2281 / ratetol=1.0 / qcomp=0.70 / qpmin=0 / qpmax=69 / qpstep=4 / cplxblur=20.0 / qblur=0.5 / vbv_maxrate=20000 / vbv_bufsize=25000 / nal_hrd=none / ip_ratio=1.35 / aq=1:0.70
    Language : English
    Default : Yes
    Forced : No
    Audio #2
    ID : 2
    Format : AC-3
    Format/Info : Audio Coding 3
    Mode extension : CM (complete main)
    Format settings, Endianness : Big
    Codec ID : A_AC3
    Duration : 1h 42mn
    Bit rate mode : Constant
    Bit rate : 384 Kbps
    Channel(s) : 6 channels
    Channel positions : Front: L C R, Side: L R, LFE
    Sampling rate : 48.0 KHz
    Bit depth : 16 bits
    Compression mode : Lossy
    Stream size : 282 MiB (13%)
    Title : Dub | DD 5.1 @ 384 kbps - Blu-ray
    Language : Russian
    Default : Yes
    Forced : Yes
    Audio #3
    ID : 3
    Format : AC-3
    Format/Info : Audio Coding 3
    Mode extension : CM (complete main)
    Format settings, Endianness : Big
    Codec ID : A_AC3
    Duration : 1h 42mn
    Bit rate mode : Constant
    Bit rate : 384 Kbps
    Channel(s) : 6 channels
    Channel positions : Front: L C R, Side: L R, LFE
    Sampling rate : 48.0 KHz
    Bit depth : 16 bits
    Compression mode : Lossy
    Stream size : 282 MiB (13%)
    Title : Original | DD 5.1 @ 384 kbps
    Language : English
    Default : No
    Forced : No
    Text #4
    ID : 4
    Format : UTF-8
    Codec ID : S_TEXT/UTF8
    Codec ID/Info : UTF-8 Plain Text
    Language : English
    Default : No
    Forced : No
    Text #5
    ID : 5
    Format : UTF-8
    Codec ID : S_TEXT/UTF8
    Codec ID/Info : UTF-8 Plain Text
    Language : Russian
    Default : No

    Forced : No


    Слова скачать торрент


    pb.wtf



  • Скачать Слова через торрент http://pic.kartinco.top/images/3/meweeg9pj2.jpg Скачать фильм Слова через торрент бесплантно в хорошем качестве Описание: Рори Джэнсен — писатель, который наконец обретает долгожданную известность, но его роман-бестселлер оказывается написан другим ... 9.5 10 10
    Info! Золотая раздача, скачанное не засчитывается.
    Торрент: Зарегистрирован [2013-07-16 02:39] · скачан: 395 раз
    Статус: √ проверено
    Размер: 2.19 GB
    Как cкачать? Как скачать Слова через торрент | qTorrent

    % Раздел Тема Автор DL S | L
    Аниме [HD 720p, 1080p] [ 3.3 GB ] Сад изящных слов / Сад слов / The Garden of Words / Kotonoha no Niwa [2013 аниме мультфильм BDRip 1080p] DVO еnvy Скачать
    2 | 0
    Арт-хаус и авторское кино [ 5.29 GB ] Тайная жизнь слов / The Secret Life of Words [2005 BDRip 720p] MVO DVO Bolala Скачать
    1 | 0
    Фильмы (Blu-ray, BD-Remux, HDDVD) [ 20.34 GB ] Слова / The Words [2012 BDRemux 1080p] [Расширенная версия / Extended Cut] Dub + VO [edos1965] Subs + Original Eng Ворон Скачать
    1 | 0
    Фильмы 2012 [ 2.05 GB ] Слова / The Words [2012 HDRip DUB лицензия] Seedtank Скачать
    1 | 0
    Фильмы [HD 720p, 1080p] (Хороший звук DUB, MVO) [ 14.43 GB ] Слова / The Words [2012 BDRip 1080p DUB лицензия] Lyfe Скачать
    1 | 0
    Фильмы (DVD фильмы) [ 6.91 GB ] Слова / The Words [2012 DVD9] R5 voovaz Скачать
    1 | 0
    Фильмы 2012 [ 1.36 GB ] Слова / The Words [2012 HDRip DUB лицензия] Seedtank Скачать
    1 | 0

    28-11-2019 20:33  

    Отключить всю рекламу на сайте

    16-07-2013 08:57 Слова Скачать торрент  

    Фильм смотрел,мне очень понравилсяpb.wtf



    16-07-2013 19:36 Слова Скачать торрент  

    спасибо.. кино понравилось.ненапрягает. легко смотрится. pb.wtf



      Дорогой пользователь! Огромная просьба, поблагодарите релизера, оцените раздачу и оставьте свои комментарий, если Вы скачали Слова через торрент бесплатно! Внесите свою лепту в развитие PiratBit!
      Комментировать посты могут только пользователи прошедшие не сложную регистрацию
      Показать сообщения:    

      Слова через торрент
      Скачать бесплатно Слова
      Слова скачать торрент
      Слова смотреть онлайн
      Cкачать фильм Слова бесплатно
      Слова скачать торрент в хорошем качестве
      Слова смотреть онлайн бесплатно в хорошем качестве


      Вы не можете начинать темы
      Вы не можете отвечать на сообщения
      Вы не можете редактировать свои сообщения
      Вы не можете удалять свои сообщения
      Вы не можете голосовать в опросах
      Вы не можете прикреплять файлы к сообщениям
      Вы можете скачивать файлы