1 сезон

3 сезон

iTunes

1

iTunes

MVO

iTunes

13

1 сезон

RePack

30

Deluxe

pack

Лицензия

ВАЖНО

ИГРА 18+

pack

RePack

MK11

RePack

jed

RePack

fifa19

RePack

RDR2

RePack

NEED FOR SPEED™ PAYBACK

4 сезон

9 сезон

Бесстыжие 9 сезон

Все сериалы

все сериалы на PB.wtf

RePack

FAR CRY 5

Anonymous, доброй ночи, мы катастрофически не успеваем собрать деньги на оплату серверов, помогите нам пожалуйста 5,10,15р., для нас важна любая помощь . В качестве благодарности мы отключим Вам всю рекламу на сайте (укажите свой ник в строку Ваше имя)!

×
  
Magnet ссылка

Великий мастер / Yi dai zong shi (Вонг Кар-Вай / Kar Wai Wong) [2013, боевик, драма, DVD9] R5 pb.wtf

Великий мастер через торрент pb.wtf

Размер: 6.63 GB | Добавлен: 8 лет назад | Торрент скачан:108 раз
Скачать  

16-07-2013 01:23 Великий мастер Скачать торрент  


Великий мастер / Yi dai zong shi
«In Martial Arts there is no right or wrong, only the last man standing.»
Страна: Гонконг, Китай, США
Студия: Annapurna Pictures, Block 2 Pictures Inc., Bona International Film Group, Jet Tone Production Co., Sil-Metropole Organisation
Жанр: боевик, драма
Год выпуска: 2013
Мировая премьера: 8 января 2013
Российская премьера: 30 мая 2013
Дата выхода DVD: 3 июля 2013
Дата выхода Blu-Ray: 3 июля 2013
Продолжительность: 01:57:55
Перевод: Профессиональный (дублированный) [Лицензия]
Cубтитры: русские
Оригинальная аудиодорожка: китайский
Режиссер: Вонг Кар-Вай / Kar Wai Wong
В ролях: Чжан Цзыи, Тони Люн Чу Вай, Сон Хё Гю, Кунг Ле, Чжан Чжэнь, Юэнь Ву-Пин, Сю-Люн Люн, Джин Чжан, Менг Ло, Чеунг-Ян Юэнь
Описание: Основатель старейшей Школы боевых искусств намерен уйти на покой и передать дела достойному преемнику. Но самый лучший его ученик вынашивает куда более амбициозные планы — он намерен объединить все разрозненные школы в одну. С этой целью он вызывает на поединок лидера каждой школы и, одерживая победу раз за разом, объединяет все школы. Последней остается школа его умершего учителя, отстоять память которого на поединок выходит его дочь, тайно влюбленная в своего соперника…
Бонусы: Фильм о фильме, Репортаж и визите режиссера в Москву

Релиз группы:
Качество: DVD9 R5
Формат: DVD-Video
Видео кодек: MPEG2
Аудио кодек: AC3
Видео: PAL 16:9 (720x576(0.472)) MPEG Video, 25,000 кадр/сек, 4894 Кбит/сек
Аудио #1: Russian (Dolby AC3, 6 ch) 384 Кбит/сек, 48,0 КГц
Аудио #2: Russian (Dolby AC3, 2 ch) 192 Кбит/сек, 48,0 КГц
Аудио #3: Chinese (Dolby AC3, 6 ch) 384 Кбит/сек, 48,0 КГц



Title: Velikiy.Master.2013.DVD9
Size: 6.63 Gb ( 6 952 330,00 KBytes ) - DVD-9
Enabled regions: 1, 2, 3, 4, 5, 6, 7, 8

VTS_01 :
Play Length: 00:00:01+01:57:55+00:00:01
Video: PAL 16:9 (720x576) VBR, Auto Letterboxed
Audio:
Russian (Dolby AC3, 6 ch)
Russian (Dolby AC3, 2 ch)
Chinese (Dolby AC3, 6 ch)
Subtitles:
Russian

VTS_02 :
Play Length: 00:00:01+00:00:05+00:00:12
Video: PAL 16:9 (720x576) VBR, Auto Letterboxed
Audio:
Russian (Dolby AC3, 6 ch)

VTS_03 :
Play Length: 00:00:01+00:00:08+00:00:01
Video: PAL 16:9 (720x576) VBR, Auto Letterboxed
Audio:
Russian (Dolby AC3, 2 ch)

VTS_04 :
Play Length: 00:00:01+00:00:33+00:00:01
Video: PAL 4:3 (720x576) VBR
Audio:
Russian (Dolby AC3, 2 ch)

VTS_05 :
Play Length: 00:00:01+00:30:38+00:00:01+00:06:02+00:00:01
Video: PAL 16:9 (720x576) VBR, Auto Letterboxed
Audio:
Russian (Dolby AC3, 2 ch)

* Menus Information *

VIDEO_TS Menu
Video:
NTSC 4:3 (720x480) VBR
Auto Pan&Scan, Auto Letterboxed
Russian Language Unit :
Title Menu

VTS_01 Menu
Video:
PAL 16:9 (720x576) VBR
Auto Letterboxed
Audio:
Not specified (Dolby AC3, 2 ch)
Russian Language Unit :
Root Menu

VTS_02 Menu
Video:
NTSC 4:3 (720x480) VBR
Auto Pan&Scan, Auto Letterboxed
Language Unit :
Subpicture Menu
Angle menu
Language Unit :
Subpicture Menu
Angle menu
Language Unit :
Subpicture Menu
Angle menu
Language Unit :
Subpicture Menu
Angle menu
Language Unit :
Subpicture Menu
Angle menu

VTS_03 Menu
Video:
NTSC 4:3 (720x480) VBR
Auto Pan&Scan, Auto Letterboxed
Language Unit :
Subpicture Menu
Angle menu
Language Unit :

Language Unit :
Root Menu
Chapter (PTT) Menu
Language Unit :

Language Unit :
Root Menu
Chapter (PTT) Menu

VTS_04 Menu
Video:
NTSC 4:3 (720x480) VBR
Auto Pan&Scan, Auto Letterboxed
Language Unit :
Subpicture Menu
Angle menu
Language Unit :
Subpicture Menu
Angle menu
Language Unit :
Subpicture Menu
Angle menu
Language Unit :
Subpicture Menu
Angle menu
Language Unit :
Subpicture Menu
Angle menu

VTS_05 Menu
Video:
NTSC 4:3 (720x480) VBR
Auto Pan&Scan, Auto Letterboxed
Russian Language Unit :
Root Menu
Общее
Полное имя : M:Новинки 2013Velikiy.Master.2013.DVD9VIDEO_TSVTS_01_2.VOB
Формат : MPEG-PS
Размер файла : 1024 Мбайт
Продолжительность : 23 м.
Режим общего битрейта : Переменный
Общий поток : 5973 Кбит/сек

Видео
Идентификатор : 224 (0xE0)
Формат : MPEG Video
Версия формата : Version 2
Профиль формата : Main@Main
Параметр BVOP формата : Да
Параметр матрицы формата : Выборочная
Параметр GOP формата : M=3, N=15
Продолжительность : 23 м.
Вид битрейта : Переменный
Битрейт : 4894 Кбит/сек
Максимальный битрейт : 8500 Кбит/сек
Ширина : 720 пикселей
Высота : 576 пикселей
Соотношение сторон : 16:9
Частота кадров : 25,000 кадров/сек
Стандарт вещания : PAL
Цветовое пространство : YUV
Субдискретизация насыщенности : 4:2:0
Битовая глубина : 8 бит
Тип развёртки : Чересстрочная
Порядок развёртки : Верхнее поле первое
Метод сжатия : С потерями
Бит/(Пиксели*Кадры) : 0.472
TimeCode_FirstFrame : 00:22:37:11
TimeCode_Source : Group of pictures header
Размер потока : 839 Мбайт (82%)

Аудио #1
Идентификатор : 189 (0xBD)-128 (0x80)
Формат : AC-3
Формат/Информация : Audio Coding 3
Расширение режима : CM (complete main)
Параметр Endianness формата : Big
Режим смешивания : DVD-Video
Продолжительность : 23 м.
Вид битрейта : Постоянный
Битрейт : 384 Кбит/сек
Каналы : 6 каналов
Расположение каналов : Front: L C R, Side: L R, LFE
Частота : 48,0 КГц
Битовая глубина : 16 бит
Метод сжатия : С потерями
Задержка видео : -304 мс.
Размер потока : 65,8 Мбайт (6%)

Аудио #2
Идентификатор : 189 (0xBD)-129 (0x81)
Формат : AC-3
Формат/Информация : Audio Coding 3
Расширение режима : CM (complete main)
Параметр Endianness формата : Big
Режим смешивания : DVD-Video
Продолжительность : 23 м.
Вид битрейта : Постоянный
Битрейт : 192 Кбит/сек
Каналы : 2 канала
Расположение каналов : Front: L R
Частота : 48,0 КГц
Битовая глубина : 16 бит
Метод сжатия : С потерями
Задержка видео : -176 мс.
Размер потока : 32,9 Мбайт (3%)

Аудио #3
Идентификатор : 189 (0xBD)-130 (0x82)
Формат : AC-3
Формат/Информация : Audio Coding 3
Расширение режима : CM (complete main)
Параметр Endianness формата : Big
Режим смешивания : DVD-Video
Продолжительность : 23 м.
Вид битрейта : Постоянный
Битрейт : 384 Кбит/сек
Каналы : 6 каналов
Расположение каналов : Front: L C R, Side: L R, LFE
Частота : 48,0 КГц
Битовая глубина : 16 бит
Метод сжатия : С потерями
Задержка видео : -304 мс.
Размер потока : 65,8 Мбайт (6%)

Текст
Идентификатор : 189 (0xBD)-32 (0x20)
Формат : RLE
Формат/Информация : Run-length encoding
Режим смешивания : DVD-Video










pb.wtf



Скачать Великий мастер через торрент http://i029.radikal.ru/1307/5a/1f1edd4a56a2.jpg Скачать фильм Великий мастер через торрент бесплантно в хорошем качестве Описание: Основатель старейшей Школы боевых искусств намерен уйти на покой и передать дела достойному преемнику. Но самый лучший его ученик ... 8.2 10 5
Info! Золотая раздача, скачанное не засчитывается.
Торрент: Зарегистрирован [2013-07-16 01:23] · скачан: 108 раз
Статус: √ проверено
Размер: 6.63 GB
Как cкачать? Как скачать Великий мастер через торрент | UTorrent

28-11-2019 20:33  

Отключить всю рекламу на сайте


16-07-2013 14:50 Великий мастер Скачать торрент  

Во сюжет :)pb.wtf



    Дорогой пользователь! Огромная просьба, поблагодарите релизера, оцените раздачу и оставьте свои комментарий, если Вы скачали Великий мастер через торрент бесплатно! Внесите свою лепту в развитие PiratBit!
    Комментировать посты могут только пользователи прошедшие не сложную регистрацию
    Показать сообщения:    

    Великий мастер через торрент
    Скачать бесплатно Великий мастер
    Великий мастер скачать торрент
    Великий мастер смотреть онлайн
    Cкачать фильм Великий мастер бесплатно
    Великий мастер скачать торрент в хорошем качестве
    Великий мастер смотреть онлайн бесплатно в хорошем качестве


    Вы не можете начинать темы
    Вы не можете отвечать на сообщения
    Вы не можете редактировать свои сообщения
    Вы не можете удалять свои сообщения
    Вы не можете голосовать в опросах
    Вы не можете прикреплять файлы к сообщениям
    Вы можете скачивать файлы