Ссылка на приватное зеркало всего за 1$. Внимание количество ограничено!!!

iTunes

1+1

iTunes

мы

WEB-DL

1

iTunes

Чернобыль

iTunes

Ральф против интернета

Лицензия

ПШазам

Лицензия

Оно 2

Лицензия

30
pack

Вам бонус

ВАЖНО

!!Акция!!

Alien_RageХит недели

RePack

Resident Evil 21

ИГРА 18+

pack

RePack

jed

!!Акция!!

Alien_Rage

RePack

fifa19

RePack

Assassins Creed: Odyssey

RePack

NEED FOR SPEED™ PAYBACK

3 сезон

9 сезон

Бесстыжие 9 сезон

Все сериалы

все сериалы на PB.wtf

RePack

FAR CRY 5
Ребята, катастрофически не хватает 1900р. для оплаты серверов за Октябрь (всвязи с блокировками трафик упал в 3 раза), 1-2р., выручайте.
  

Химидзу / Огонь и вода / Крот / Himizu (Сион Соно / Sion Sono) [2011, Япония, драма, криминал, HDRip] MVO (НТВ+) pb.wtf

Химидзу через торрент pb.wtf

Размер: 2.05 GB | Добавлен: 6 лет 4 мес. назад | Торрент скачан:107 раз
Скачать  

16-07-2013 11:15 Химидзу Скачать торрент  



Химидзу / Огонь и вода / Крот / Himizu



  • Год выпуска:2011
  • Страна: Япония
  • Жанр:драма, криминал
  • Продолжительность: 02:10:11
  • Перевод:Профессиональный (многоголосый, закадровый) НТВ+

  • Субтитры: Нет
    • Режиссер: Сион Соно / Sion Sono
    • Продюсер:Харуо Умэкава / Haruo Umekawa, Масаси Ямадзаки / Masashi Yamazaki
    • Сценарий:Минору Фуруя / Minoru Furuya, Сион Соно / Sion Sono

  • В ролях:Шота Сомея (Yuichi), Фуми Никайдо (Keiko), Тэцу Ватанабэ (Shozo), Мицуру Фукикоси (Keita tamura), Мегуми Кагуразака (Keiko tamura), Кен Мицуйси (Sumida's father), Макико Ватанабэ (Sumida's mother), Асука Куросава, Денден (Kaneko), Дзюн Мураками (Tanimura), Ёскэ Кубодзука (Teruhiko), Юрико Ёситака (Miki)
    • Описание:
      Фильм рассказывает об истории любви двух подростков, существующих на самом дне общества. Действие разворачиваются после разрушительного землетрясения, произошедшего в Японии в 2011 году. Он - отчаянно пытается выжить, она - мечтает о семье, которой никогда не имела. Возможно ли остаться собой, когда мир вокруг тебя погружен во тьму, а смерть - самый лёгкий выход?

  • Рейтинг
    kinopoisk.ru: 7.225 (119)
    imdb.com: 6.90 (901)
    • Качество:HDRip
    • Формат: AVI
    • Видео кодек: XviD
    • Аудио кодек: AC3
    • Видео: XviD, 720x384 (1.875), 2047 kbps, 23,976 fps, 0,309 bpp
    • Аудио: AC3 / 2.0 / 48 kHz / 192 kbps / 16 bit

    General
    Complete name : D:ТорентыHimidzu_2011.HDRip.avi
    Format : AVI
    Format/Info : Audio Video Interleave
    Format profile : OpenDML
    File size : 2.05 GiB
    Duration : 2h 10mn
    Overall bit rate : 2 252 Kbps
    Writing application : VirtualDubMod 1.5.10.3 | www.virtualdub-fr.org || (build 2550/release)
    Writing library : VirtualDubMod build 2550/release

    Video
    ID : 0
    Format : MPEG-4 Visual
    Format profile : Advanced Simple@L5
    Format settings, BVOP : 2
    Format settings, QPel : No
    Format settings, GMC : No warppoints
    Format settings, Matrix : Default (MPEG)
    Codec ID : XVID
    Codec ID/Hint : XviD
    Duration : 2h 10mn
    Bit rate : 2 048 Kbps
    Width : 720 pixels
    Height : 384 pixels
    Display aspect ratio : 1.875
    Frame rate : 23.976 fps
    Color space : YUV
    Chroma subsampling : 4:2:0
    Bit depth : 8 bits
    Scan type : Progressive
    Compression mode : Lossy
    Bits/(Pixel*Frame) : 0.309
    Stream size : 1.86 GiB (91%)
    Writing library : XviD 1.2.1 (UTC 2008-12-04)

    Audio
    ID : 1
    Format : AC-3
    Format/Info : Audio Coding 3
    Mode extension : CM (complete main)
    Codec ID : 2000
    Duration : 2h 10mn
    Bit rate mode : Constant
    Bit rate : 192 Kbps
    Channel(s) : 2 channels
    Channel positions : Front: L R
    Sampling rate : 48.0 KHz
    Bit depth : 16 bits
    Compression mode : Lossy
    Stream size : 179 MiB (9%)
    Alignment : Split accross interleaves
    Interleave, duration : 42 ms (1.00 video frame)
    Interleave, preload duration : 500 ms
    Сценарий: Минору Фуруя / Minoru Furuya, Сион Соно / Sion Sono
    Продюсер: Харуо Умэкава / Haruo Umekawa, Масаси Ямадзаки / Masashi Yamazaki
    Оператор: Сохэй Таникава / Sôhei Tanikawa
    Композитор: Томохидэ Харада / Tomohide Harada

    Мировая премьера: 6 сентября 2011


    © Оформление by Vetalpb.wtf



  • Скачать Химидзу через торрент http://i6.imageban.ru/out/2013/07/16/edd587c8cb5b54df31d27f7265325400.jpg Скачать фильм Химидзу через торрент бесплантно в хорошем качестве Описание:Фильм рассказывает об истории любви двух подростков, существующих на самом дне общества. Действие разворачиваются после ... 10 10 7
    Info! Золотая раздача, скачанное не засчитывается.
    Торрент: Зарегистрирован [2013-07-16 11:15] · скачан: 107 раз
    Статус: √ проверено
    Размер: 2.05 GB
    Как cкачать? Как скачать Химидзу через торрент | qTorrent

    28-11-2019 20:33  

    Отключить всю рекламу на сайте

      Дорогой пользователь! Огромная просьба, поблагодарите релизера, оцените раздачу и оставьте свои комментарий, если Вы скачали Химидзу через торрент бесплатно! Внесите свою лепту в развитие PiratBit!
      Комментировать посты могут только пользователи прошедшие не сложную регистрацию
      Показать сообщения:    

      Химидзу через торрент
      Скачать бесплатно Химидзу
      Химидзу скачать торрент
      Химидзу смотреть онлайн
      Cкачать фильм Химидзу бесплатно
      Химидзу скачать торрент в хорошем качестве
      Химидзу смотреть онлайн бесплатно в хорошем качестве


      Вы не можете начинать темы
      Вы не можете отвечать на сообщения
      Вы не можете редактировать свои сообщения
      Вы не можете удалять свои сообщения
      Вы не можете голосовать в опросах
      Вы не можете прикреплять файлы к сообщениям
      Вы можете скачивать файлы