2 сезон

iTunes

MVO

1

2 сезон

iTunes

iTunes

1 сезон

RePack

30

Ultimate

ВАЖНО

ИГРА 18+

pack

RePack

MK11
pack

Легкие деньги

RePack

jed

RePack

fifa19

RePack

RDR2

RePack

NEED FOR SPEED™ PAYBACK

4 сезон

9 сезон

Бесстыжие 9 сезон

Все сериалы

все сериалы на PB.wtf

RePack

FAR CRY 5

Anonymous, доброй ночи, мы не успеваем собрать деньги на оплату серверов за декабрь и январь, помогите нам пожалуйста в это трудное время. В качестве благодарности мы отключим Вам всю рекламу на сайте (укажите свой ник в строку Ваше имя)!

×
  
Magnet ссылка

Тайна Чингис Хаана (Андрей Борисов) [2009 г., Боевик, драма, история, HDRip] pb.wtf

Тайна Чингис Хаана через торрент pb.wtf

Размер: 1.46 GB | Добавлен: 7 лет 6 мес. назад | Торрент скачан:105 раз
Скачать  

16-07-2013 16:50 Тайна Чингис Хаана Скачать торрент  

Тайна Чингис Хаана

«НЕБО знает. ЗЕМЛЯ знает. Я знаю... и ТЫ узнаешь!»


  • Год выпуска:2009
  • Страна: Россия, Монголия, США
  • Жанр:боевик, драма, история
  • Продолжительность: 02:07:16
  • Перевод:Не требуется

  • Субтитры: Нет
    • Режиссер: Андрей Борисов
    • Продюсер:Владимир Иванов
    • Сценарий:Владимир Карпов, Николай Лугинов

  • В ролях:Степанида Борисова (Оэлун), Сергей Егоров (Темучин в юности), Гернот Гримм (миссионер Джованни), Оргил Макхаан (Джамуха), Эдуард Ондар (молодой Чингизхан), Сюзанна Ооржак (Бортэ), Ефим Степанов (Хохочой), Кэри-Хироюки Тагава (телохранитель), Олег Тактаров (Кучулук хан), Мен Ту (Шен мин джен), Аян Успун (Темучин в детстве), Ильяна Павлова (Оэлун в юности)
    • Описание:
      Это история человека, имя которого знает весь мир. Воина, который взял в руки оружие, чтобы обеспечить мир и покой своей семьи, своего народа, своей страны. Великого хана, собравшего разные племена и народы под знаменем единой империи, под властью единого Закона. Властителя, чья империя простиралась от Желтого моря до Средиземного.
      Правителя, который провозгласил терпимость - национальную и религиозную. Основателя новой - евразийской цивилизации. История о том, как Тэмучин стал Чингисханом. История рождения империи. Это история любви, которая неподвластна времени. Любви Есугэй-батура к чужой жене - красавице Ожулун, любви их сына Темучина к юной Бортэ, ставшей первой и главной женой великого хана. История дружбы и предательства названного брата Темучина - Джамухи.

  • Рейтинг
    kinopoisk.ru: 4.456 (905)
    imdb.com: 4.30 (223)
    • Качество:HDRip
    • Формат: AVI
    • Видео кодек: XviD
    • Аудио кодек: AC3
    • Видео: XviD, 720x304 (2.35:1), 1253 kbps, 23,976 fps, 0,239 bpp
    • Аудио: AC3 / 5.1 / 48 kHz / 384 kbps / 16 bit

    General
    Complete name : D:ТорентыTajna.Chingis.Haana.2009.HDRip.avi
    Format : AVI
    Format/Info : Audio Video Interleave
    File size : 1.46 GiB
    Duration : 2h 7mn
    Overall bit rate : 1 647 Kbps
    Writing application : VirtualDubMod 1.5.10.2 (build 2540/release)
    Writing library : VirtualDubMod build 2540/release

    Video
    ID : 0
    Format : MPEG-4 Visual
    Format profile : Advanced Simple@L5
    Format settings, BVOP : 1
    Format settings, QPel : No
    Format settings, GMC : No warppoints
    Format settings, Matrix : Default (MPEG)
    Codec ID : XVID
    Codec ID/Hint : XviD
    Duration : 2h 7mn
    Bit rate : 1 254 Kbps
    Width : 720 pixels
    Height : 304 pixels
    Display aspect ratio : 2.35:1
    Frame rate : 23.976 fps
    Color space : YUV
    Chroma subsampling : 4:2:0
    Bit depth : 8 bits
    Scan type : Progressive
    Compression mode : Lossy
    Bits/(Pixel*Frame) : 0.239
    Stream size : 1.11 GiB (76%)
    Writing library : XviD 1.2.1 (UTC 2008-12-04)

    Audio
    ID : 1
    Format : AC-3
    Format/Info : Audio Coding 3
    Mode extension : CM (complete main)
    Codec ID : 2000
    Duration : 2h 7mn
    Bit rate mode : Constant
    Bit rate : 384 Kbps
    Channel(s) : 6 channels
    Channel positions : Front: L C R, Side: L R, LFE
    Sampling rate : 48.0 KHz
    Bit depth : 16 bits
    Compression mode : Lossy
    Stream size : 350 MiB (23%)
    Alignment : Split accross interleaves
    Interleave, duration : 42 ms (1.00 video frame)
    Interleave, preload duration : 500 ms
    Сценарий: Владимир Карпов, Николай Лугинов
    Продюсер: Владимир Иванов
    Оператор: Юрий Брежнев
    Композитор: Альберт Кувезин

    Бюджет: $10 000 000
    Сборы в России: $1 208 668

    Мировая премьера: 12 марта 2009
    Релиз на DVD: 2 апреля 2009, «CP-Digital»


    © Оформление by Vetalpb.wtf



  • Скачать Тайна Чингис Хаана через торрент http://i6.imageban.ru/out/2013/07/16/c9b066e6a997122a5727c4b1a7de2fb4.jpg Скачать фильм Тайна Чингис Хаана через торрент бесплантно в хорошем качестве Описание:Это история человека, имя которого знает весь мир. Воина, который взял в руки оружие, чтобы обеспечить мир и покой своей семьи, ... 8.2 10 5
    Info! Золотая раздача, скачанное не засчитывается.
    Торрент: Зарегистрирован [2013-07-16 16:50] · скачан: 105 раз
    Статус: √ проверено
    Размер: 1.46 GB
    Как cкачать? Как скачать Тайна Чингис Хаана через торрент | UTorrent

    % Раздел Тема Автор DL S | L
    Наши фильмы, до 2010 [ 2.18 GB ] Тайна Чингис Хаана / По велению Чингисхана [2009 история биография военный BDRip] [] bober100 Скачать
    1 | 0

    28-11-2019 20:33  

    Отключить всю рекламу на сайте

      Дорогой пользователь! Огромная просьба, поблагодарите релизера, оцените раздачу и оставьте свои комментарий, если Вы скачали Тайна Чингис Хаана через торрент бесплатно! Внесите свою лепту в развитие PiratBit!
      Комментировать посты могут только пользователи прошедшие не сложную регистрацию
      Показать сообщения:    

      Тайна Чингис Хаана через торрент
      Скачать бесплатно Тайна Чингис Хаана
      Тайна Чингис Хаана скачать торрент
      Тайна Чингис Хаана смотреть онлайн
      Cкачать фильм Тайна Чингис Хаана бесплатно
      Тайна Чингис Хаана скачать торрент в хорошем качестве
      Тайна Чингис Хаана смотреть онлайн бесплатно в хорошем качестве


      Вы не можете начинать темы
      Вы не можете отвечать на сообщения
      Вы не можете редактировать свои сообщения
      Вы не можете удалять свои сообщения
      Вы не можете голосовать в опросах
      Вы не можете прикреплять файлы к сообщениям
      Вы можете скачивать файлы