2 сезон

iTunes

MVO

1

2 сезон

iTunes

iTunes

1 сезон

RePack

30

Новинка

ВАЖНО

ИГРА 18+

pack

RePack

MK11
pack

Легкие деньги

RePack

jed

RePack

fifa19

RePack

RDR2

RePack

NEED FOR SPEED™ PAYBACK

4 сезон

9 сезон

Бесстыжие 9 сезон

Все сериалы

все сериалы на PB.wtf

RePack

FAR CRY 5

Anonymous, доброе утро, мы не успеваем собрать деньги на оплату серверов за декабрь и январь, помогите нам пожалуйста в это трудное время. В качестве благодарности мы отключим Вам всю рекламу на сайте (укажите свой ник в строку Ваше имя)!

×
  
Magnet ссылка

Очень страшное кино 5 / Scary MoVie 5 (Малкольм Д. Ли) [2013 г., комедия, HDRip, Дубляж, лицензия] pb.wtf

Очень страшное кино 5 через торрент pb.wtf

Размер: 1.37 GB | Добавлен: 7 лет 6 мес. назад | Торрент скачан:3568 раз
Скачать  

16-07-2013 20:41 Очень страшное кино 5 Скачать торрент  

Очень страшное кино 5 / Scary MoVie 5
  • Год выпуска: 2013
  • Страна: США
  • Жанр: комедия
  • Продолжительность: 01:25:46
  • Перевод: Дубляж, Лицензия
  • Субтитры: Нет

  • Режиссер: Малкольм Д. Ли
  • Продюссер: Фил Дорнфелд, Дэвид Цукер, Брайан Белл
  • Сценарий: Дэвид Цукер, Пэт Профт

  • Бюджет: $20 000 000




  • В ролях: Эшли Тисдейл, Саймон Рекс, Эрика Эш, Катрина Боуден, Терри Крюс, Хэзер Локлир, Жан-Поль Мано, Мак Миллер, Джерри О’Коннелл, Молли Шеннон

  • Описание: Молодая супружеская пара Дэн и Джоди начинают замечать некоторые странные активности, когда они приносят своего новорожденного ребенка Айдена домой из больницы. Но когда нарастают проблемы и хаос в работе Джоди и карьере Дэна, они понимают, что их семью преследуют гнусные демоны. Вместе с советом сертифицированных специалистов и при помощи многочисленных камер, они должны выяснить, как избавиться от этих существ, пока не стало слишком поздно.

  • Качество: HDRip
  • Формат: AVI
  • Видео кодек: XviD
  • Аудио кодек: AC3
  • Видео: XviD;720x400 (16:9);1823 Kbps;24 fps;0,264 bpp
  • Аудио#1: AC3;448 Kbps;CBR;6 ch;16 bit



    D:Ochen.strashnoe.kino.5.2013.D.HDRip.1400MB.INTERCINEMA.avi
    General
    Complete name : D:Ochen.strashnoe.kino.5.2013.D.HDRip.1400MB.INTERCINEMA.avi
    Format : AVI
    Format/Info : Audio Video Interleave
    File size : 1.37 GiB
    Duration : 1h 25mn
    Overall bit rate : 2 281 Kbps
    Movie name : Ochen.strashnoe.kino.5.2013.D.HDRip.1400MB.INTERCINEMA
    Director : INTERCINEMA
    Writing application : VirtualDubMod 1.5.10.2 (build 2540/release)
    Original source form/Name : Movie
    Copyright :
    Video #0
    ID : 0
    Format : MPEG-4 Visual
    Format profile : Advanced Simple@L5
    Format settings, BVOP : 2
    Format settings, QPel : No
    Format settings, GMC : No warppoints
    Format settings, Matrix : Default (MPEG)
    Codec ID : XVID
    Codec ID/Hint : XviD
    Duration : 1h 25mn
    Bit rate : 1 824 Kbps
    Width : 720 pixels
    Height : 400 pixels
    Display aspect ratio : 16:9
    Frame rate : 24.000 fps
    Color space : YUV
    Chroma subsampling : 4:2:0
    Bit depth : 8 bits
    Scan type : Progressive
    Compression mode : Lossy
    Bits/(Pixel*Frame) : 0.264
    Stream size : 1.09 GiB (80%)
    Writing library : XviD 1.2.1 (UTC 2008-12-04)
    Audio #1
    ID : 1
    Format : AC-3
    Format/Info : Audio Coding 3
    Mode extension : CM (complete main)
    Format settings, Endianness : Big
    Codec ID : 2000
    Duration : 1h 25mn
    Bit rate mode : Constant
    Bit rate : 448 Kbps
    Channel(s) : 6 channels
    Channel positions : Front: L C R, Side: L R, LFE
    Sampling rate : 48.0 KHz
    Bit depth : 16 bits
    Compression mode : Lossy
    Stream size : 275 MiB (20%)
    Alignment : Split accross interleaves
    Interleave, duration : 42 ms (1.00 video frame)

    Interleave, preload duration : 500 ms


    Очень страшное кино 5 скачать торрент


    pb.wtf



  • Скачать Очень страшное кино 5 через торрент https://pic.kartinco.top/images/3/am5vi3ndmz.png Скачать фильм Очень страшное кино 5 через торрент бесплантно в хорошем качестве Описание: Молодая супружеская пара Дэн и Джоди начинают замечать некоторые странные активности, когда они приносят своего новорожденного ... 9.6 10 92
    Info! Золотая раздача, скачанное не засчитывается.
    Торрент: Зарегистрирован [2013-07-16 20:41] · скачан: 3 568 раз
    Статус: √ проверено
    Размер: 1.37 GB
    Как cкачать? Как скачать Очень страшное кино 5 через торрент | UTorrent

    % Раздел Тема Автор DL S | L
    Фильмы [HD 720p, 1080p] (Хороший звук DUB, MVO) [ 4.02 GB ] Очень страшное кино 5 / Scary MoVie [2013 BDRip 720p] [ лицензия ] Ворон Скачать
    1 | 0
    Фильмы 2013 [DVDrip, WEB-DLRip, HDrip] [ 1.46 GB ] Очень страшное кино 5 / Scary MoVie [2013 BDRip] Dub / лицензия Mr. Freeman Скачать
    1 | 0
    Фильмы 2013 [DVDrip, WEB-DLRip, HDrip] [ 748 MB ] Очень страшное кино 5 / Scary MoVie [2013 BDRip-AVC] Dub sokol_ok Скачать
    2 | 0
    Фильмы (DVD фильмы) [ 4.36 GB ] Очень страшное кино 5 / Scary MoVie [2013 DVD5] R5 voovaz Скачать
    1 | 0
    Фильмы 2013 [DVDrip, WEB-DLRip, HDrip] [ 2.18 GB ] Очень страшное кино 5 / Scary MoVie [ 2013 BDRip-AVC лицензия] МАКС1 Скачать
    1 | 0
    Фильмы (Blu-ray, BD-Remux, HDDVD) [ 12.77 GB ] Очень страшное кино 5 / Scary MoVie [2013 пародия Blu-ray лицензия] Pavlin Скачать
    1 | 1

    28-11-2019 20:33  

    Отключить всю рекламу на сайте


    16-07-2013 22:53 Очень страшное кино 5 Скачать торрент  

    люди вот скажите кто смотрел эту серию фильмов трезвым, вам было смешно?pb.wtf



    17-07-2013 02:50 Очень страшное кино 5 Скачать торрент  

    61RusSektor писал(а):

    люди вот скажите кто смотрел эту серию фильмов трезвым, вам было смешно?

    да.
    особенно после этих фильмов было смешно смотреть "Крик", и только на середине фильма понять, что это "Крик", а не "Оч.страш.кино"pb.wtf



    21-07-2013 16:57 Очень страшное кино 5 Скачать торрент  

    61RusSektor писал(а):

    люди вот скажите кто смотрел эту серию фильмов трезвым, вам было смешно?

    pb.wtf





    Последний раз редактировалось: duzer (2013-08-25 17:08), всего редактировалось 1 раз

    25-07-2013 15:41 Очень страшное кино 5 Скачать торрент  

    мозг отключать надо всеми способами.pb.wtf



      Дорогой пользователь! Огромная просьба, поблагодарите релизера, оцените раздачу и оставьте свои комментарий, если Вы скачали Очень страшное кино 5 через торрент бесплатно! Внесите свою лепту в развитие PiratBit!
      Комментировать посты могут только пользователи прошедшие не сложную регистрацию
      Показать сообщения:    

      Очень страшное кино 5 через торрент
      Скачать бесплатно Очень страшное кино 5
      Очень страшное кино 5 скачать торрент
      Очень страшное кино 5 смотреть онлайн
      Cкачать фильм Очень страшное кино 5 бесплатно
      Очень страшное кино 5 скачать торрент в хорошем качестве
      Очень страшное кино 5 смотреть онлайн бесплатно в хорошем качестве


      Вы не можете начинать темы
      Вы не можете отвечать на сообщения
      Вы не можете редактировать свои сообщения
      Вы не можете удалять свои сообщения
      Вы не можете голосовать в опросах
      Вы не можете прикреплять файлы к сообщениям
      Вы можете скачивать файлы