1 сезон

1 сезон

iTunes

1

КиноПоиск HD

Кинопоиск HD

iTunes

13

1 сезон

RePack

30

Новинка

ВАЖНО

ИГРА 18+

pack

RePack

MK11
pack

Легкие деньги

RePack

jed

RePack

fifa19

RePack

RDR2

RePack

NEED FOR SPEED™ PAYBACK

4 сезон

9 сезон

Бесстыжие 9 сезон

Все сериалы

все сериалы на PB.wtf

RePack

FAR CRY 5
  
Magnet ссылка

Слоеный торт / Layer Cake (Мэттью Вон / Matthew Vaughn) [2004, триллер, драма, криминал, BDRip] [DVO] pb.wtf

Слоеный торт через торрент pb.wtf

Размер: 747 MB | Добавлен: 7 лет 8 мес. назад | Торрент скачан:95 раз
Скачать  

17-07-2013 13:23 Слоеный торт Скачать торрент  

Слоеный торт / Layer Cake
Год выпуска: 2004
Жанр: триллер, драма, криминал
Страна: Великобритания / Marv Films
Продолжительность: 01:45:23
Перевод: Профессиональный (двухголосый, закадровый)
Субтитры: нет
Режиссер: Мэттью Вон / Matthew Vaughn
В ролях: Дэниэл Крэйг, Сиенна Миллер, Колм Мини, Кеннет Крэнэм, Майкл Гэмбон, Джейсон Флеминг, Том Харди, Бен Уишоу, Декстер Флетчер, Джордж Харрис
Описание: Торговать кокаином — не цветочки разводить. Бизнес нервный, чреватый ранней смертностью. Поэтому наркодилер по кличке Четыре Икса, заработав достаточно неправедных денег, решает более не искушать судьбу и уйти на покой. Однако перед этим ему, как водится, придется оказать своему боссу последнюю услугу: разыскать пропавшую дочку его старого приятеля. Кажется, плевое дело для знатока лондонского дна?! Если бы бедняга знал, каким безумным беспределом и чередой опасных недоразумений обернется это задание, в котором «случайно» оказалась замешана партия экстази на два миллиона, то вышел бы в отставку месяцем раньше! А лучше — двумя!..
Сэмпл

Качество: BDRip
Формат: AVI
Видео кодек: XviD
Аудио кодек: MP3
Видео: 688x288 (2.39:1), 23.976 fps, XviD build 65 ~853 kbps avg, 0.18 bit/pixel
Аудио: 48 kHz, MPEG Layer 3, 2 ch, ~128.00 kbps avg
E:INTERNETSloenyj_tort_2004_DVO_BDRip_silver.avi
General
Complete name : E:INTERNETSloenyj_tort_2004_DVO_BDRip_silver.avi
Format : AVI
Format/Info : Audio Video Interleave
File size : 747 MiB
Duration : 1h 45mn
Overall bit rate : 991 Kbps
Writing application : VirtualDubMod 1.5.10.3 (build 2550/release)
Writing library : VirtualDubMod build 2550/release
Video #0
ID : 0
Format : MPEG-4 Visual
Format profile : Advanced Simple@L5
Format settings, BVOP : 2
Format settings, QPel : No
Format settings, GMC : No warppoints
Format settings, Matrix : Custom
Codec ID : XVID
Codec ID/Hint : XviD
Duration : 1h 45mn
Bit rate : 854 Kbps
Width : 688 pixels
Height : 288 pixels
Display aspect ratio : 2.40:1
Frame rate : 23.976 fps
Color space : YUV
Chroma subsampling : 4:2:0
Bit depth : 8 bits
Scan type : Progressive
Compression mode : Lossy
Bits/(Pixel*Frame) : 0.180
Stream size : 644 MiB (86%)
Writing library : XviD 65
Audio #1
ID : 1
Format : MPEG Audio
Format version : Version 1
Format profile : Layer 3
Mode : Joint stereo
Mode extension : MS Stereo
Codec ID : 55
Codec ID/Hint : MP3
Duration : 1h 45mn
Bit rate mode : Constant
Bit rate : 128 Kbps
Channel(s) : 2 channels
Sampling rate : 48.0 KHz
Compression mode : Lossy
Stream size : 96.5 MiB (13%)
Alignment : Aligned on interleaves
Interleave, duration : 42 ms (1.00 video frame)
Interleave, preload duration : 504 ms
Writing library : LAME3.99r
Encoding settings : -m j -V 4 -q 3 -lowpass 17 -b 128
pb.wtf



Скачать Слоеный торт через торрент http://i43.fastpic.ru/big/2012/0820/05/8a2c6a11313bda7716e529638c2df605.png Скачать фильм Слоеный торт через торрент бесплантно в хорошем качестве Описание: Торговать кокаином — не цветочки разводить. Бизнес нервный, чреватый ранней смертностью. Поэтому наркодилер по кличке Четыре ... 9.5 10 4
Info! Золотая раздача, скачанное не засчитывается.
Торрент: Зарегистрирован [2013-07-17 13:23] · скачан: 95 раз
Статус: √ проверено
Размер: 747 MB
Как cкачать? Как скачать Слоеный торт через торрент | UTorrent

% Раздел Тема Автор DL S | L
Фильмы [HD 720p, 1080p] (Хороший звук DUB, MVO) [ 10.09 GB ] Слоёный торт / Layer Cake [2004 BDRip-HEVC 1080p ] MVO+3xDVO+AVO+VO bober100 Скачать
1 | 0
Фильмы 2001-2005 [ 1.45 GB ] Слоеный Торт / Layer Cake [2004 BDRip MVO + MVO ] bogyn Скачать
2 | 0
Фильмы [HD 720p, 1080p] (Хороший звук DUB, MVO) [ 4.37 GB ] Слоеный торт / Layer Cake [2004 BDRip 720p]MVO + Original -=Cherry=- Скачать
1 | 0
Фильмы [HD 720p, 1080p] (Хороший звук DUB, MVO) [ 4.37 GB ] Слоеный торт / Layer Cake [2004 BDRip 720p/DVD5] diletant Скачать
1 | 0
Фильмы 2001-2005 [ 1.45 GB ] Слоеный торт / Layer Cake [2004 BDRip-AVC] MVO + Original eng + Subs Anonymous Скачать
1 | 0

28-11-2019 20:33  

Отключить всю рекламу на сайте

    Дорогой пользователь! Огромная просьба, поблагодарите релизера, оцените раздачу и оставьте свои комментарий, если Вы скачали Слоеный торт через торрент бесплатно! Внесите свою лепту в развитие PiratBit!
    Комментировать посты могут только пользователи прошедшие не сложную регистрацию
    Показать сообщения:    

    Слоеный торт через торрент
    Скачать бесплатно Слоеный торт
    Слоеный торт скачать торрент
    Слоеный торт смотреть онлайн
    Cкачать фильм Слоеный торт бесплатно
    Слоеный торт скачать торрент в хорошем качестве
    Слоеный торт смотреть онлайн бесплатно в хорошем качестве


    Вы не можете начинать темы
    Вы не можете отвечать на сообщения
    Вы не можете редактировать свои сообщения
    Вы не можете удалять свои сообщения
    Вы не можете голосовать в опросах
    Вы не можете прикреплять файлы к сообщениям
    Вы можете скачивать файлы