2 сезон

iTunes

1 сезон

1

iTunes

iTunes

iTunes

1 сезон

RePack

30

ИГРА 18+

pack

ВАЖНО

!!Акция!!

Alien_RageХит недели

RePack

MK11
pack

Забери бонус

RePack

jed

!!Акция!!

Alien_Rage

RePack

fifa19

RePack

Assassins Creed: Odyssey

RePack

NEED FOR SPEED™ PAYBACK

4 сезон

9 сезон

Бесстыжие 9 сезон

Все сериалы

все сериалы на PB.wtf

RePack

FAR CRY 5
  

Король зомби / The Zombie King (Эйдан Белизейр / Aidan Belizaire) [ 2013 , Великобритания , ужасы, комедия , HDRip ] VO pb.wtf

Король зомби через торрент pb.wtf

Размер: 701 MB | Добавлен: 7 лет 3 мес. назад | Торрент скачан:96 раз
Скачать  

17-07-2013 14:54 Король зомби Скачать торрент  

Король зомби / The Zombie King

«7 Souls, 7 Steps, 7 Days to HELL!»


  • Год выпуска:2013
  • Страна: Великобритания
  • Жанр:ужасы, комедия
  • Продолжительность: 01:36:06
  • Перевод:Любительский (одноголосый)[den904]

  • Субтитры: Нет
    • Режиссер: Эйдан Белизейр / Aidan Belizaire
    • Продюсер:Дженнифер Чиппиндейл / Jennifer Chippindale, Ребекка-Клер Эванс / Rebecca-Clare Evans, Линдон Бэлдок / Lyndon Baldock, Стюарт Бреннан / Stuart Brennan, Laura Cakebread
    • Сценарий:Ребекка-Клер Эванс / Rebecca-Clare Evans, Дженнифер Чиппиндейл / Jennifer Chippindale, Джордж МакКласки / George McCluskey, Лиза Качья / Lisa Cachia

  • В ролях:Эдвард Ферлонг (Samuel Peters - The Zombie King), Кори Фельдман (Kalfu), Джордж МакКласки (Ed Wallace), Дэвид МакКлелланд (Munch), Майкл Гамарано (Boris), Ребекка-Клер Эванс (Danny), Дженнифер Чиппиндейл (Tara), Себ Кастанг (Simo), Джон Кэмплинг (Father Lawrence), Тимоти Оуэн (Neville), Анабель Барнстон (Tabitha), Джейн Фуфас (Vera)
    • Описание:
      Сэмюэль Петерс вполне обычный человек, который пытается использовать магию вуду, чтобы вернуть к жизни свою умершую жену. Вскоре он неожиданно сталкивается с Богом зла Калфу, с которым заключает договор об уничтожении преисподней с воцарением хаоса на земле. Взамен он станет Королем Зомби и вернется на землю со своей покойной женой для вечной жизни.

  • Рейтинг
    imdb.com: 3.00 (335)
    • Качество:HDRip
    • Формат: AVI
    • Видео кодек: XviD
    • Аудио кодек: MP3
    • Видео: XviD, 640x272 (2.35:1), 883 kbps, 23,976 fps, 0,212 bpp
    • Аудио: MP3 / 2.0 / 48 kHz / 128 kbps /

    General
    Complete name : D:ТорентыThe.Zombie.King.2013.700bm.avi
    Format : AVI
    Format/Info : Audio Video Interleave
    File size : 701 MiB
    Duration : 1h 36mn
    Overall bit rate : 1 020 Kbps
    Writing application : VirtualDubMod 1.5.10.2 (build 2540/release)
    Writing library : VirtualDubMod build 2540/release

    Video
    ID : 0
    Format : MPEG-4 Visual
    Format profile : Advanced Simple@L5
    Format settings, BVOP : 2
    Format settings, QPel : No
    Format settings, GMC : No warppoints
    Format settings, Matrix : Default (H.263)
    Codec ID : XVID
    Codec ID/Hint : XviD
    Duration : 1h 36mn
    Bit rate : 883 Kbps
    Width : 640 pixels
    Height : 272 pixels
    Display aspect ratio : 2.35:1
    Frame rate : 23.976 fps
    Color space : YUV
    Chroma subsampling : 4:2:0
    Bit depth : 8 bits
    Scan type : Progressive
    Compression mode : Lossy
    Bits/(Pixel*Frame) : 0.212
    Stream size : 607 MiB (87%)
    Writing library : XviD 64

    Audio
    ID : 1
    Format : MPEG Audio
    Format version : Version 1
    Format profile : Layer 3
    Mode : Joint stereo
    Mode extension : MS Stereo
    Codec ID : 55
    Codec ID/Hint : MP3
    Duration : 1h 36mn
    Bit rate mode : Constant
    Bit rate : 128 Kbps
    Channel(s) : 2 channels
    Sampling rate : 48.0 KHz
    Compression mode : Lossy
    Stream size : 88.0 MiB (13%)
    Alignment : Aligned on interleaves
    Interleave, duration : 42 ms (1.00 video frame)
    Interleave, preload duration : 504 ms
    Writing library : LAME3.99r
    Encoding settings : -m j -V 4 -q 3 -lowpass 17 -b 128
    Сценарий: Ребекка-Клер Эванс / Rebecca-Clare Evans, Дженнифер Чиппиндейл / Jennifer Chippindale, Джордж МакКласки / George McCluskey, Лиза Качья / Lisa Cachia
    Продюсер: Дженнифер Чиппиндейл / Jennifer Chippindale, Ребекка-Клер Эванс / Rebecca-Clare Evans, Линдон Бэлдок / Lyndon Baldock, Стюарт Бреннан / Stuart Brennan, Laura Cakebread
    Оператор: Исмаэль Иса / Ismael Issa
    Композитор: Эндрю Филлипс / Andrew Phillips

    Мировая премьера: 26 апреля 2013


    © Оформление by Vetalpb.wtf



  • Скачать Король зомби через торрент http://i6.imageban.ru/out/2013/07/17/dcfe51573d878bd9593ea6ec0b5a4e11.png Скачать фильм Король зомби через торрент бесплантно в хорошем качестве Описание:Сэмюэль Петерс вполне обычный человек, который пытается использовать магию вуду, чтобы вернуть к жизни свою умершую жену. Вскоре ... 6.6 10 5
    Info! Золотая раздача, скачанное не засчитывается.
    Торрент: Зарегистрирован [2013-07-17 14:54] · скачан: 96 раз
    Статус: √ проверено
    Размер: 701 MB
    Как cкачать? Как скачать Король зомби через торрент | qTorrent

    % Раздел Тема Автор DL S | L
    Фильмы 2013 (Звук TS, Cam, VO, DVO) [ 1.37 GB ] Король зомби / The Zombie King [ 2013 HDRip ] VO Ворон Скачать
    1 | 0

    28-11-2019 20:33  

    Отключить всю рекламу на сайте

      Дорогой пользователь! Огромная просьба, поблагодарите релизера, оцените раздачу и оставьте свои комментарий, если Вы скачали Король зомби через торрент бесплатно! Внесите свою лепту в развитие PiratBit!
      Комментировать посты могут только пользователи прошедшие не сложную регистрацию
      Показать сообщения:    

      Король зомби через торрент
      Скачать бесплатно Король зомби
      Король зомби скачать торрент
      Король зомби смотреть онлайн
      Cкачать фильм Король зомби бесплатно
      Король зомби скачать торрент в хорошем качестве
      Король зомби смотреть онлайн бесплатно в хорошем качестве


      Вы не можете начинать темы
      Вы не можете отвечать на сообщения
      Вы не можете редактировать свои сообщения
      Вы не можете удалять свои сообщения
      Вы не можете голосовать в опросах
      Вы не можете прикреплять файлы к сообщениям
      Вы можете скачивать файлы