1 сезон

1 сезон

iTunes

1

КиноПоиск HD

Кинопоиск HD

iTunes

13

1 сезон

RePack

30

Новинка

ВАЖНО

ИГРА 18+

pack

RePack

MK11
pack

Легкие деньги

RePack

jed

RePack

fifa19

RePack

RDR2

RePack

NEED FOR SPEED™ PAYBACK

4 сезон

9 сезон

Бесстыжие 9 сезон

Все сериалы

все сериалы на PB.wtf

RePack

FAR CRY 5
  
Magnet ссылка

Тихий американец / The Quiet American (Филлип Нойс / Phillip Noyce) [ 2001 , Германия, США, Великобритания, Австралия, Франция , триллер, драма, мелодрама , BDRip ] pb.wtf

Тихий американец через торрент pb.wtf

Размер: 2.18 GB | Добавлен: 7 лет 8 мес. назад | Торрент скачан:72 раза
Скачать  

17-07-2013 22:09 Тихий американец Скачать торрент  

Тихий американец / The Quiet American Год выпуска: 2001
Страна: Германия, США, Великобритания, Австралия, Франция
Слоган: «Самое сильное оружие войны - соблазн»
Жанр: триллер, драма, мелодрама, детектив, военный
Продолжительность: 01:41:11
Перевод: Профессиональный (многоголосый, закадровый)

Режиссер: Филлип Нойс / Phillip Noyce
Сценарий: Кристофер Хэмптон / Christopher Hampton, Роберт Шенккан / Robert Schenkkan, Грэм Грин / Graham Greene
Продюсер: Стаффан Аренберг / Staffan Ahrenberg, Уильям Хорберг / William Horberg, Ролан Лубе / Roland Loubet, Кэтлин МакЛафлин / Kathleen McLaughlin, Энтони Мингелла / Anthony Minghella

В ролях: Майкл Кейн (Thomas Fowler), Брендан Фрейзер (Alden Pyle), До Тхи Хай Йен (Phuong), Раде Шербеджия (Inspector Vigot), Ци Ма (Hinh), Роберт Стэнтон (Joe Tunney), Холмс Осборн (Bill Granger), Нгуен Хай (General Thé), Фердинанд Хоанг (Mr. Muoi), Пэм Тхи Мэй Хоа (Phuong's Sister), Матиа Млекюз (French Captain), Кевин Трэн (Watch Tower Soldier)
Бюджет: $30 000 000
Сборы в США: $12 988 801
Сборы в мире: $27 674 124
Мировая премьера: 9 сентября 2002
Релиз на DVD: 2 ноября 2010, «Парадиз Медиа»
Описание: Сайгон, 1952 г. Опытный британский журналист Томас Фаулер живет в экзотическом восточном раю, найдя свое счастье в объятиях юной красавицы Фонг. Приезд молодого американца Пайла развеивает скуку Томаса, уставшего от местных политических стычек и интриг, но когда Пайл признается, что страстно любит Фонг, их дружба превращается в острое противостояние.
Не желая подчиняться судьбе, Фаулер решает получше узнать Пайла и вскоре понимает, что его соперник намного опаснее, чем кажется на первый взгляд...

Рейтинг
kinopoisk.ru: 7.117 (1025)
imdb.com: 7.10 (19 404)
MPAA: R - Лицам до 17 лет обязательно присутствие взрослого
  • Качество: BDRip
  • Формат: AVI
  • Видео кодек: XviD
  • Аудио кодек: AC3
  • Видео: XviD; 720x304 (2.35:1); 2164 Kbps; 23,976 fps; 0,412 bpp
  • Аудио №1: AC3; 448 Kbps; CBR; 6 ch; 16 bit; 48 kHz (Russian)
  • Аудио №2: AC3; 448 Kbps; CBR; 6 ch; 16 bit; 48 kHz (English)
    Сэмпл / Трейлер
    • Полный вариант имеет хронометраж 118 минут.
    General
    Complete name : D:Загрузки из интернетаМои рипыThe.Quiet.American.2002.BDRip.kep.avi
    Format : AVI
    Format/Info : Audio Video Interleave
    Format profile : OpenDML
    File size : 2.18 GiB
    Duration : 1h 41mn
    Overall bit rate : 3 079 Kbps
    Movie name : The Quiet American
    Genre : Thriller, detective, the military
    Writing application : VirtualDubModRus 1.5.10.2 (build 2542/release)
    Original source form/Name : Movie
    Comment : Rip ot kep

    Video
    ID : 0
    Format : MPEG-4 Visual
    Format profile : Advanced Simple@L5
    Format settings, BVOP : 1
    Format settings, QPel : No
    Format settings, GMC : No warppoints
    Format settings, Matrix : Default (MPEG)
    Codec ID : XVID
    Codec ID/Hint : XviD
    Duration : 1h 41mn
    Bit rate : 2 165 Kbps
    Width : 720 pixels
    Height : 304 pixels
    Display aspect ratio : 2.35:1
    Frame rate : 23.976 fps
    Color space : YUV
    Chroma subsampling : 4:2:0
    Bit depth : 8 bits
    Scan type : Progressive
    Compression mode : Lossy
    Bits/(Pixel*Frame) : 0.412
    Stream size : 1.53 GiB (70%)
    Writing library : XviD 73

    Audio #1
    ID : 1
    Format : AC-3
    Format/Info : Audio Coding 3
    Mode extension : CM (complete main)
    Codec ID : 2000
    Duration : 1h 41mn
    Bit rate mode : Constant
    Bit rate : 448 Kbps
    Channel(s) : 6 channels
    Channel positions : Front: L C R, Side: L R, LFE
    Sampling rate : 48.0 KHz
    Bit depth : 16 bits
    Compression mode : Lossy
    Stream size : 324 MiB (15%)
    Alignment : Split accross interleaves
    Interleave, duration : 42 ms (1.00 video frame)
    Interleave, preload duration : 500 ms
    Title : Russian

    Audio #2
    ID : 2
    Format : AC-3
    Format/Info : Audio Coding 3
    Mode extension : CM (complete main)
    Codec ID : 2000
    Duration : 1h 41mn
    Bit rate mode : Constant
    Bit rate : 448 Kbps
    Channel(s) : 6 channels
    Channel positions : Front: L C R, Side: L R, LFE
    Sampling rate : 48.0 KHz
    Bit depth : 16 bits
    Compression mode : Lossy
    Stream size : 324 MiB (15%)
    Alignment : Split accross interleaves
    Interleave, duration : 42 ms (1.00 video frame)
    Interleave, preload duration : 500 ms
    Title : English
    pb.wtf



  • Скачать Тихий американец через торрент http://i6.imageban.ru/out/2013/07/17/ff8aa59b3a690860bbaf013f28cc8aa6.png Скачать фильм Тихий американец через торрент бесплантно в хорошем качестве Описание: Сайгон, 1952 г. Опытный британский журналист Томас Фаулер живет в экзотическом восточном раю, найдя свое счастье в объятиях юной ... 9.8 10 6
    Info! Золотая раздача, скачанное не засчитывается.
    Торрент: Зарегистрирован [2013-07-17 22:09] · скачан: 72 раз
    Статус: √ проверено
    Размер: 2.18 GB
    Как cкачать? Как скачать Тихий американец через торрент | UTorrent

    28-11-2019 20:33  

    Отключить всю рекламу на сайте

    18-07-2013 17:18 Тихий американец Скачать торрент  

    Отличный фильм, в свое время смотрел с удовольствиемpb.wtf



      Дорогой пользователь! Огромная просьба, поблагодарите релизера, оцените раздачу и оставьте свои комментарий, если Вы скачали Тихий американец через торрент бесплатно! Внесите свою лепту в развитие PiratBit!
      Комментировать посты могут только пользователи прошедшие не сложную регистрацию
      Показать сообщения:    

      Тихий американец через торрент
      Скачать бесплатно Тихий американец
      Тихий американец скачать торрент
      Тихий американец смотреть онлайн
      Cкачать фильм Тихий американец бесплатно
      Тихий американец скачать торрент в хорошем качестве
      Тихий американец смотреть онлайн бесплатно в хорошем качестве


      Вы не можете начинать темы
      Вы не можете отвечать на сообщения
      Вы не можете редактировать свои сообщения
      Вы не можете удалять свои сообщения
      Вы не можете голосовать в опросах
      Вы не можете прикреплять файлы к сообщениям
      Вы можете скачивать файлы