Ссылка на приватное зеркало нашего сайта всего за 1$. Внимание количество ограничено!!!

2 сезон

iTunes

1 сезон

1

iTunes

iTunes

iTunes

1 сезон

RePack

30

ИГРА 18+

pack

ВАЖНО

!!Акция!!

Alien_RageХит недели

RePack

MK11
pack

Забери бонус

RePack

jed

!!Акция!!

Alien_Rage

RePack

fifa19

RePack

Assassins Creed: Odyssey

RePack

NEED FOR SPEED™ PAYBACK

4 сезон

9 сезон

Бесстыжие 9 сезон

Все сериалы

все сериалы на PB.wtf

RePack

FAR CRY 5
  

Семейный уик-энд / Family Weekend (Бенжамин Еппс) [ 2013 , США , драма, комедия , WEB-DLRip, VO ] pb.wtf

Семейный уик-энд через торрент pb.wtf

Размер: 2.05 GB | Добавлен: 7 лет 3 мес. назад | Торрент скачан:272 раза
Скачать  

18-07-2013 01:13 Семейный уик-энд Скачать торрент  

Семейный уик-энд / Family Weekend
  • Год выпуска: 2013
  • Страна: США
  • Жанр: драма, комедия
  • Продолжительность: 01:45:31
  • Перевод: Любительский (одноголосый)- [Gentleman]
  • Субтитры: Нет

  • Режиссер: Бенжамин Еппс / Benjamin Epps




  • В ролях: Кристин Ченоуэт (Samantha Smith-Dungy), Мэттью Модайн (Duncan Dungy), Олеся Рулин (Emily Smith-Dungy), Джои Кинг (Lucinda Smith-Dungy), Эдди Хэсселл (Jackson Smith-Dungy), Ширли Джонс (GG), Хлоя Бриджес (Kat), Адам Саундерс (Rick), Робби Такер (Mickey Smith-Dungy), Питер Гэйл (Deputy Tyler), Чейз Мэйсер (Chris), Лиза Лорен Смит (Officer Reyes)

  • Описание: Изначально о взаимопонимании и семейной гармонии в этом доме никто даже и не слышал. Еще бы, откуда же ей взяться в логове карьеристки, которая спит и думает только о собственной карьере и успехе и художника-романтика, который далек от житейских проблем и живет в мире творчества. Не смотря на такое различие в темпераментах и образах жизни эти двое умудрились на жить детей и много лет прожить вместе, почти не замечая друг друга и не занимаясь своими чадами. Пока дети были малы и несмышлены, родителям все сходило с рук. Брошенные и недолюбленные дети в прямом смысле слова были предоставлены сами себе. Теперь старшей дочери уже 16, она не ребенок и понимает, что это не нормальная семья, и все должно быть иначе. Она устала от того, что родители, живя под одной крышей каждый находятся в своем мире, но при этом их эгоизме страдают только дети, т. е. она и ее сестры-братья. Понимая, что нужны кардинальные меры, она берет младших в союзники и устраивает предкам настоящий уикенд с испытаниями, который должен образумить их и заставить задуматься о семье.

  • Качество: WEB-DLRip
  • Формат: AVI
  • Видео кодек: XviD
  • Аудио кодек: AC3
  • Видео: 720x304 (2.37:1), 23.976 fps, XviD build 73 ~1996 kbps avg, 0.38 bit/pixel
  • Аудио №1: 48 kHz, AC3 Dolby Digital, 3/2 (L,C,R,l,r) + LFE ch, ~384 kbps Russian
  • Аудио №2: 48 kHz, AC3 Dolby Digital, 3/2 (L,C,R,l,r) + LFE ch, ~384 kbps English
    D:Family.Weekend.2013.WEB-DLRip.-X-Torrents.avi
    General
    Complete name : D:Family.Weekend.2013.WEB-DLRip.-X-Torrents.avi
    Format : AVI
    Format/Info : Audio Video Interleave
    Format profile : OpenDML
    File size : 2.05 GiB
    Duration : 1h 45mn
    Overall bit rate : 2 782 Kbps
    Movie name : Family.Weekend.201.WEB-DLRip
    Director : Odessit
    Writing application : VirtualDubMod 1.5.10.3 (build 2550/release)
    Writing library : VirtualDubMod build 2550/release
    Video #0
    ID : 0
    Format : MPEG-4 Visual
    Format profile : Advanced Simple@L5
    Format settings, BVOP : 1
    Format settings, QPel : No
    Format settings, GMC : No warppoints
    Format settings, Matrix : Custom
    Codec ID : XVID
    Codec ID/Hint : XviD
    Duration : 1h 45mn
    Bit rate : 1 996 Kbps
    Width : 720 pixels
    Height : 304 pixels
    Display aspect ratio : 2.35:1
    Frame rate : 23.976 fps
    Color space : YUV
    Chroma subsampling : 4:2:0
    Bit depth : 8 bits
    Scan type : Progressive
    Compression mode : Lossy
    Bits/(Pixel*Frame) : 0.380
    Stream size : 1.47 GiB (72%)
    Writing library : XviD 73
    Audio #1
    ID : 1
    Format : AC-3
    Format/Info : Audio Coding 3
    Mode extension : CM (complete main)
    Format settings, Endianness : Big
    Codec ID : 2000
    Duration : 1h 45mn
    Bit rate mode : Constant
    Bit rate : 384 Kbps
    Channel(s) : 6 channels
    Channel positions : Front: L C R, Side: L R, LFE
    Sampling rate : 48.0 KHz
    Bit depth : 16 bits
    Compression mode : Lossy
    Stream size : 290 MiB (14%)
    Alignment : Split accross interleaves
    Interleave, duration : 42 ms (1.00 video frame)
    Interleave, preload duration : 500 ms
    Audio #2
    ID : 2
    Format : AC-3
    Format/Info : Audio Coding 3
    Mode extension : CM (complete main)
    Format settings, Endianness : Big
    Codec ID : 2000
    Duration : 1h 45mn
    Bit rate mode : Constant
    Bit rate : 384 Kbps
    Channel(s) : 6 channels
    Channel positions : Front: L C R, Side: L R, LFE
    Sampling rate : 48.0 KHz
    Bit depth : 16 bits
    Compression mode : Lossy
    Stream size : 290 MiB (14%)
    Alignment : Split accross interleaves
    Interleave, duration : 42 ms (1.00 video frame)
    Interleave, preload duration : 500 ms
    pb.wtf



  • Скачать Семейный уик-энд через торрент http://i3.imageban.ru/out/2013/07/18/bac5e59ae4c62c17f31f7a4be8fb6b9d.jpg Скачать фильм Семейный уик-энд через торрент бесплантно в хорошем качестве Описание: Изначально о взаимопонимании и семейной гармонии в этом доме никто даже и не слышал. Еще бы, откуда же ей взяться в логове ... 10 10 7
    Info! Золотая раздача, скачанное не засчитывается.
    Торрент: Зарегистрирован [2013-07-18 01:13] · скачан: 272 раз
    Статус: √ проверено
    Размер: 2.05 GB
    Как cкачать? Как скачать Семейный уик-энд через торрент | qTorrent

    % Раздел Тема Автор DL S | L
    Фильмы 2013 [DVDrip, WEB-DLRip, HDrip] [ 1.36 GB ] уик-энд / Family Weekend [2013 WEB-DLRip[/ ] Ворон Скачать
    1 | 0
    Фильмы 2013 [DVDrip, WEB-DLRip, HDrip] [ 747 MB ] уик-энд / Family Weekend [2013 WEB-DLRip ] Se7ven95 Скачать
    1 | 0
    Фильмы 2013 [DVDrip, WEB-DLRip, HDrip] [ 2.05 GB ] уик-энд / Family Weekend [2013 WEB-DLRip[/ ] Ворон Скачать
    1 | 0
    Фильмы 2013 (Звук TS, Cam, VO, DVO) [ 743 MB ] уик-энд / Family Weekend [ 2013 WEB-DLRip ] VO - [Gentleman] Ворон Скачать
    1 | 0
    Фильмы 2013 (Звук TS, Cam, VO, DVO) [ 1.36 GB ] уик-энд / Family Weekend [ 2013 WEB-DLRip ] VO - [Gentleman] Ворон Скачать
    1 | 0

    28-11-2019 20:33  

    Отключить всю рекламу на сайте

      Дорогой пользователь! Огромная просьба, поблагодарите релизера, оцените раздачу и оставьте свои комментарий, если Вы скачали Семейный уик-энд через торрент бесплатно! Внесите свою лепту в развитие PiratBit!
      Комментировать посты могут только пользователи прошедшие не сложную регистрацию
      Показать сообщения:    

      Семейный уик-энд через торрент
      Скачать бесплатно Семейный уик-энд
      Семейный уик-энд скачать торрент
      Семейный уик-энд смотреть онлайн
      Cкачать фильм Семейный уик-энд бесплатно
      Семейный уик-энд скачать торрент в хорошем качестве
      Семейный уик-энд смотреть онлайн бесплатно в хорошем качестве


      Вы не можете начинать темы
      Вы не можете отвечать на сообщения
      Вы не можете редактировать свои сообщения
      Вы не можете удалять свои сообщения
      Вы не можете голосовать в опросах
      Вы не можете прикреплять файлы к сообщениям
      Вы можете скачивать файлы