Ссылка на приватное зеркало нашего сайта всего за 1$. Внимание количество ограничено!!!

2 сезон

iTunes

1 сезон

1

2 сезон

2 сезон

iTunes

1 сезон

RePack

30

Новинка

ВАЖНО

ИГРА 18+

pack

RePack

MK11
pack

Забери бонус

RePack

jed

!!Акция!!

Alien_Rage

RePack

fifa19

RePack

Assassins Creed: Odyssey

RePack

NEED FOR SPEED™ PAYBACK

4 сезон

9 сезон

Бесстыжие 9 сезон

Все сериалы

все сериалы на PB.wtf

RePack

FAR CRY 5
  

G.I. Joe: Бросок кобры 2 в 3D / G.I. Joe: Retaliation in 3D (Джон М. Чу) [2013 г., фантастика, боевик, триллер, приключения, BDRip 1080p, Дубляж + Оригинал] Анаглиф (Дюбуа) pb.wtf

G.I. Joe: Бросок кобры 2 в 3D через торрент pb.wtf

Размер: 6.88 GB | Добавлен: 7 лет 4 мес. назад | Торрент скачан:126 раз
Скачать  

18-07-2013 11:42 G.I. Joe: Бросок кобры 2 в 3D Скачать торрент  

G.I. Joe: Бросок кобры 2 в 3D/ G.I. Joe: Retaliation in 3D

Год выпуска: 2013
Страна: США
Жанр:фантастика, боевик, триллер, приключения
Продолжительность: 01:50:12
Перевод: Дубляж + Оригинал
Субтитры: English, Russian, Ukrainian

Режиссер: Джон М. Чу
Продюссер: Лоренцо Ди Бонавентура, Брайан Голднер, Гари Барбер
Сценарий: Ретт Риз, Пол Верник

Бюджет: $130 000 000
Премьера в мире: 27 марта 2013



В ролях:Дуэйн Джонсон, Эдрианн Палики, Брюс Уиллис, Рэй Парк, Ли Бён Хон, Д.Дж. Котрона, Джонатан Прайс, Элоди Юнг, Ченнинг Татум, Люк Брейси,
Роли озвучивали: Юрий Деркач, Ирина Киреева, Владимир Герасимов, Александр Гаврилин, Дмитрий Поляновский,

Описание: Во второй части отряд «G.I. Joe» вновь объявит вызов группировке «Кобра» и вступит в противостояние с правительством...

Формат 3D: Анаглиф (Дюбуа)



Качество: BDRip 1080p
Формат: MKV
Видео кодек: H.264
Аудио кодек: AC3
Видео: 1920 x 816; (2,35:1) 23.976 fps; 8009 Kbps (0.213 bit/pixel)
Аудио#1: Русский / AC3 / 48 KHz / 5.1 ch / 448 Kbps
Аудио#2: Английский / AC3 / 48 KHz / 5.1 ch / 448 Kbps




Общее
Уникальный идентификатор : 28329949907353557554846918347232497072 (0x1550265EDC494E2C67F39A7BC215CDB0)
Полное имя : D:DVDG.I.Joe.Retaliation.2013.3D.(Anaglyph_Dubois).mkv
Формат : Matroska
Версия формата : Version 2
Размер файла : 6,88 Гбайт
Продолжительность : 1 ч. 50 м.
Общий поток : 8932 Кбит/сек
Программа кодирования : HandBrake 0.9.9
Библиотека кодирования : libmkv 0.6.5
TITLE : G.I. Joe: Бросок кобры 2 / G.I.Joe.Retaliation.2013.(Anaglyph_Dubois)

Видео
Идентификатор : 1
Формат : AVC
Формат/Информация : Advanced Video Codec
Профиль формата : Baseline@L4.0
Параметр CABAC формата : Нет
Параметр ReFrames формата : 1 кадр
Идентификатор кодека : V_MPEG4/ISO/AVC
Продолжительность : 1 ч. 50 м.
Битрейт : 8009 Кбит/сек
Ширина : 1920 пикселей
Высота : 816 пикселей
Соотношение сторон : 2,35:1
Режим частоты кадров : Постоянный
Частота кадров : 23,976 кадра/сек
Цветовое пространство : YUV
Субдискретизация насыщенности : 4:2:0
Битовая глубина : 8 бит
Тип развёртки : Прогрессивная
Бит/(Пиксели*Кадры) : 0.213
Размер потока : 6,05 Гбайт (88%)
Библиотека кодирования : x264 core 130 r2273 b3065e6
Настройки программы : cabac=0 / ref=1 / deblock=0:-1:-1 / analyse=0:0 / me=dia / subme=0 / psy=1 / psy_rd=1.00:0.15 / mixed_ref=0 / me_range=16 / chroma_me=1 / trellis=0 / 8x8dct=0 / cqm=0 / deadzone=21,11 / fast_pskip=1 / chroma_qp_offset=0 / threads=3 / lookahead_threads=1 / sliced_threads=0 / nr=0 / decimate=1 / interlaced=0 / bluray_compat=0 / constrained_intra=0 / bframes=0 / weightp=0 / keyint=240 / keyint_min=24 / scenecut=0 / intra_refresh=0 / rc=abr / mbtree=0 / bitrate=8009 / ratetol=1.0 / qcomp=0.60 / qpmin=0 / qpmax=69 / qpstep=4 / ip_ratio=1.40 / aq=0
Язык : English
Default : Да
Forced : Нет
Основные цвета : BT.709
Характеристики трансфера : BT.709
Коэффициенты матрицы : BT.709

Аудио #1
Идентификатор : 2
Формат : AC-3
Формат/Информация : Audio Coding 3
Расширение режима : CM (complete main)
Параметр Endianness формата : Big
Идентификатор кодека : A_AC3
Продолжительность : 1 ч. 50 м.
Вид битрейта : Постоянный
Битрейт : 448 Кбит/сек
Каналы : 6 каналов
Расположение каналов : Front: L C R, Side: L R, LFE
Частота : 48,0 КГц
Битовая глубина : 16 бит
Метод сжатия : С потерями
Размер потока : 353 Мбайт (5%)
Язык : Russian
Default : Да
Forced : Нет

Аудио #2
Идентификатор : 3
Формат : AC-3
Формат/Информация : Audio Coding 3
Расширение режима : CM (complete main)
Параметр Endianness формата : Big
Идентификатор кодека : A_AC3
Продолжительность : 1 ч. 50 м.
Вид битрейта : Постоянный
Битрейт : 448 Кбит/сек
Каналы : 6 каналов
Расположение каналов : Front: L C R, Side: L R, LFE
Частота : 48,0 КГц
Битовая глубина : 16 бит
Метод сжатия : С потерями
Размер потока : 353 Мбайт (5%)
Язык : English
Default : Нет
Forced : Нет

Текст #1
Идентификатор : 4
Формат : UTF-8
Идентификатор кодека : S_TEXT/UTF8
Идентификатор кодека/Информация : UTF-8 Plain Text
Язык : English
Default : Нет
Forced : Нет

Текст #2
Идентификатор : 5
Формат : UTF-8
Идентификатор кодека : S_TEXT/UTF8
Идентификатор кодека/Информация : UTF-8 Plain Text
Язык : Russian
Default : Нет
Forced : Нет

Текст #3
Идентификатор : 6
Формат : UTF-8
Идентификатор кодека : S_TEXT/UTF8
Идентификатор кодека/Информация : UTF-8 Plain Text
Язык : Ukrainian
Default : Нет
Forced : Нет

Меню
00:00:00.000 : Chapter 1
00:06:08.242 : Chapter 2
00:12:52.313 : Chapter 3
00:17:35.512 : Chapter 4
00:25:37.410 : Chapter 5
00:30:56.229 : Chapter 6
00:39:00.921 : Chapter 7
00:42:41.016 : Chapter 8
00:48:31.283 : Chapter 9
00:54:03.031 : Chapter 10
01:01:46.577 : Chapter 11
01:07:34.717 : Chapter 12
01:13:56.849 : Chapter 13
01:17:54.503 : Chapter 14
01:23:46.021 : Chapter 15
01:31:12.800 : Chapter 16
01:41:13.400 : Chapter 17
pb.wtf



Скачать G.I. Joe: Бросок кобры 2 в 3D через торрент http://pic.kartinco.top/images/3/47k3vqqvm8.jpg Скачать фильм G.I. Joe: Бросок кобры 2 в 3D через торрент бесплантно в хорошем качестве Описание: Во второй части отряд «G.I. Joe» вновь объявит вызов группировке «Кобра» и вступит в противостояние с правительством...Формат 3D: ... 8.3 10 13
Info! Золотая раздача, скачанное не засчитывается.
Торрент: Зарегистрирован [2013-07-18 11:42] · скачан: 126 раз
Статус: √ проверено
Размер: 6.88 GB
Как cкачать? Как скачать G.I. Joe: Бросок кобры 2 в 3D через торрент | qTorrent

% Раздел Тема Автор DL S | L
3D Фильмы [ 9 GB ] G.I. Joe: Бросок кобры 2 в 3D / G.I. Joe: Retaliation in 3D [2013 BDRip 1080p + Оригинал] Half OverUnder / Вертикальная анаморфная стереопара slaventi-69 Скачать
1 | 0

28-11-2019 20:33  

Отключить всю рекламу на сайте

18-07-2013 13:14 G.I. Joe: Бросок кобры 2 в 3D Скачать торрент  

Фильм хороший!pb.wtf





Последний раз редактировалось: maqwert (2013-07-18 16:30), всего редактировалось 1 раз

18-07-2013 13:52 G.I. Joe: Бросок кобры 2 в 3D Скачать торрент  

Если кого то неустраивает Анаглиф, скачать могут и здесь. Реклама стороних ресурсов? По моему тут хватает новинок в хорошем качестве, и не стоит рекламировать др. треккеры.pb.wtf



18-07-2013 14:53 G.I. Joe: Бросок кобры 2 в 3D Скачать торрент  

slaventi-69 писал(а):

Если кого то неустраивает Анаглиф, скачать могут и здесь. Реклама стороних ресурсов? По моему тут хватает новинок в хорошем качестве, и не стоит рекламировать др. треккеры.

А я думал за рекламу других трекеров дают предупреждение.

Дают но на первый раз устное.pb.wtf



20-08-2015 04:51 G.I. Joe: Бросок кобры 2 в 3D Скачать торрент  

Цитата:

G.I. Joe: Бросок кобры 2 в 3D / G.I. Joe: Retaliation in 3D (Джон М. Чу) [2013 г., фантастика, боевик, триллер, приключения, BDRip 1080p, Дубляж + Оригинал] Анаглиф (Дюбуа)

кто нибудь встаньте на раздачу - скорость 0% (за ранее спасибо)pb.wtf



    Дорогой пользователь! Огромная просьба, поблагодарите релизера, оцените раздачу и оставьте свои комментарий, если Вы скачали G.I. Joe: Бросок кобры 2 в 3D через торрент бесплатно! Внесите свою лепту в развитие PiratBit!
    Комментировать посты могут только пользователи прошедшие не сложную регистрацию
    Показать сообщения:    

    G.I. Joe: Бросок кобры 2 в 3D через торрент
    Скачать бесплатно G.I. Joe: Бросок кобры 2 в 3D
    G.I. Joe: Бросок кобры 2 в 3D скачать торрент
    G.I. Joe: Бросок кобры 2 в 3D смотреть онлайн
    Cкачать фильм G.I. Joe: Бросок кобры 2 в 3D бесплатно
    G.I. Joe: Бросок кобры 2 в 3D скачать торрент в хорошем качестве
    G.I. Joe: Бросок кобры 2 в 3D смотреть онлайн бесплатно в хорошем качестве


    Вы не можете начинать темы
    Вы не можете отвечать на сообщения
    Вы не можете редактировать свои сообщения
    Вы не можете удалять свои сообщения
    Вы не можете голосовать в опросах
    Вы не можете прикреплять файлы к сообщениям
    Вы можете скачивать файлы