2 сезон

iTunes

MVO

1

2 сезон

iTunes

iTunes

1 сезон

RePack

30

Новинка

ВАЖНО

ИГРА 18+

pack

RePack

MK11
pack

Легкие деньги

RePack

jed

RePack

fifa19

RePack

RDR2

RePack

NEED FOR SPEED™ PAYBACK

4 сезон

9 сезон

Бесстыжие 9 сезон

Все сериалы

все сериалы на PB.wtf

RePack

FAR CRY 5

Anonymous, доброй ночи, мы не успеваем собрать деньги на оплату серверов за декабрь и январь, помогите нам пожалуйста в это трудное время. В качестве благодарности мы отключим Вам всю рекламу на сайте (укажите свой ник в строку Ваше имя)!

×
  
Magnet ссылка

Санаторий / Sanitarium (Брайан Ортиз, Брайан Рамирез, Керри Вальдеррама) [2013, Триллер, DVDRip] MVO pb.wtf

Санаторий через торрент pb.wtf

Размер: 1.37 GB | Добавлен: 7 лет 5 мес. назад | Торрент скачан:703 раза
Скачать  

18-07-2013 21:54 Санаторий Скачать торрент  

Санаторий / SanitariumГод выпуска: 2013
Страна: США
Жанр: триллер
Продолжительность: 01:47:42
Перевод: Профессиональный (многоголосый, закадровый)
Режиссер: Брайан Ортиз / Bryan Ortiz, Брайан Рамирез / Bryan Ramirez, Керри Вальдеррама / Kerry Valderrama
В ролях: Малкольм МакДауэлл (Dr. Stenson), Лу Даймонд Филлипс (James Silo), Джон Гловер (Gustav), Роберт Инглунд (Sam), Дэвид Мазоуз (Steven), Лейси Чаберт (Ms. Lorne), Крис Малки (Father), Майра Лил (Isabelle), Нова Кларк (Allison), Брант Бамперс (Creature), Марк Канту (Police Officer), Venda D'Abato (Reflection)
Описание: Перед нами антология, состоящая из трех получасовых историй, происходящих в психушке. Каждый эпизод начинается с вступительного слова доктора Стенсон, лечащего врача, комментирующего недавний приход нового пациента со словами: «История человека начинается...».

Качество: DVDRip
Формат: AVI
Видео кодек: XviD
Аудио кодек: AC3
Видео: XviD, 624x304 (2.053), 1359 kbps, 25 fps, 0,287 bpp
Аудио: AC3 / 5.1 / 48 kHz / 448 kbps / 16 bit
General
Complete name : D:ТорентыSanatoriy.2013.DVDRip..avi
Format : AVI
Format/Info : Audio Video Interleave
File size : 1.37 GiB
Duration : 1h 47mn
Overall bit rate : 1 817 Kbps
Writing application : VirtualDubMod 1.5.10.2 (build 2540/release)
Writing library : VirtualDubMod build 2540/release

Video
ID : 0
Format : MPEG-4 Visual
Format profile : Advanced Simple@L5
Format settings, BVOP : 1
Format settings, QPel : No
Format settings, GMC : No warppoints
Format settings, Matrix : Default (H.263)
Muxing mode : Packed bitstream
Codec ID : XVID
Codec ID/Hint : XviD
Duration : 1h 47mn
Bit rate : 1 359 Kbps
Width : 624 pixels
Height : 304 pixels
Display aspect ratio : 2.053
Frame rate : 25.000 fps
Color space : YUV
Chroma subsampling : 4:2:0
Bit depth : 8 bits
Scan type : Progressive
Compression mode : Lossy
Bits/(Pixel*Frame) : 0.287
Stream size : 1.02 GiB (75%)
Writing library : XviD 1.2.1 (UTC 2008-12-04)

Audio
ID : 1
Format : AC-3
Format/Info : Audio Coding 3
Mode extension : CM (complete main)
Codec ID : 2000
Duration : 1h 47mn
Bit rate mode : Constant
Bit rate : 448 Kbps
Channel(s) : 6 channels
Channel positions : Front: L C R, Side: L R, LFE
Sampling rate : 48.0 KHz
Bit depth : 16 bits
Compression mode : Lossy
Stream size : 345 MiB (25%)
Alignment : Split accross interleaves
Interleave, duration : 40 ms (1.00 video frame)
Interleave, preload duration : 500 ms
pb.wtf



Скачать Санаторий через торрент http://i6.imageban.ru/out/2013/07/19/735b981c44f01b1b34d37fcfa0785ba1.jpg Скачать фильм Санаторий через торрент бесплантно в хорошем качестве Описание: Перед нами антология, состоящая из трех получасовых историй, происходящих в психушке. Каждый эпизод начинается с вступительного ... 9.5 10 24
Info! Золотая раздача, скачанное не засчитывается.
Торрент: Зарегистрирован [2013-07-18 21:54] · скачан: 703 раз
Статус: √ проверено
Размер: 1.37 GB
Как cкачать? Как скачать Санаторий через торрент | UTorrent

% Раздел Тема Автор DL S | L
Фильмы (Blu-ray, BD-Remux, HDDVD) [ 20.21 GB ] Санаторий / Sanitarium [2013 BDRemux ] MVO Ворон Скачать
1 | 0
Фильмы (WEB-DL 720p, 1080p) [ 3.63 GB ] Санаторий / Sanitarium [2013 WEB-DL 720p] MVO GEKADOL Скачать
1 | 0

28-11-2019 20:33  

Отключить всю рекламу на сайте

19-07-2013 08:49 Санаторий Скачать торрент  

А ха ха!! Отлично название перевели :good2:pb.wtf



19-07-2013 09:09 Санаторий Скачать торрент  

По игре или нет?

http://www.ag.ru/games/sanitariumpb.wtf



19-07-2013 09:52 Санаторий Скачать торрент  

Ну как кино ? Вообще много обещающеpb.wtf



19-07-2013 15:12 Санаторий Скачать торрент  

херня кино :doubledown:pb.wtf



20-07-2013 01:17 Санаторий Скачать торрент  

отцтой какойто pb.wtf



21-07-2013 07:33 Санаторий Скачать торрент  

фильм ну ооочень напоминает сериал сумеречная зонаpb.wtf



    Дорогой пользователь! Огромная просьба, поблагодарите релизера, оцените раздачу и оставьте свои комментарий, если Вы скачали Санаторий через торрент бесплатно! Внесите свою лепту в развитие PiratBit!
    Комментировать посты могут только пользователи прошедшие не сложную регистрацию
    Показать сообщения:    

    Санаторий через торрент
    Скачать бесплатно Санаторий
    Санаторий скачать торрент
    Санаторий смотреть онлайн
    Cкачать фильм Санаторий бесплатно
    Санаторий скачать торрент в хорошем качестве
    Санаторий смотреть онлайн бесплатно в хорошем качестве


    Вы не можете начинать темы
    Вы не можете отвечать на сообщения
    Вы не можете редактировать свои сообщения
    Вы не можете удалять свои сообщения
    Вы не можете голосовать в опросах
    Вы не можете прикреплять файлы к сообщениям
    Вы можете скачивать файлы