Ссылка на приватное зеркало всего за 1$. Внимание количество ограничено!!!


iTunes

1+1

iTunes

мы

WEB-DL

1

iTunes

Чернобыль

iTunes

Ральф против интернета

Лицензия

ПШазам

Лицензия

Оно 2

WEB-DL

30
pack

Вам бонус

ВАЖНО

!!Акция!!

Alien_RageХит недели

RePack

Resident Evil 21

ИГРА 18+

pack

RePack

jed

!!Акция!!

Alien_Rage

RePack

fifa19

RePack

Assassins Creed: Odyssey

RePack

NEED FOR SPEED™ PAYBACK

4 сезон

9 сезон

Бесстыжие 9 сезон

Все сериалы

все сериалы на PB.wtf

RePack

FAR CRY 5
Ребята, катастрофически не хватает 1900р. для оплаты серверов за Октябрь (всвязи с блокировками трафик упал в 3 раза), 1-2р., выручайте.
  

Дик Трейси: Дилемма / Dick Tracy's Dilemma (Джон Роулинз / John Rawlins) [1947, Триллер, детектив, DVDRip] [MVO] pb.wtf

Дик Трейси: Дилемма через торрент pb.wtf

Размер: 881 MB | Добавлен: 6 лет 4 мес. назад | Торрент скачан:14 раз
Скачать  

19-07-2013 15:12 Дик Трейси: Дилемма Скачать торрент  

Дик Трейси: Дилемма / Dick Tracy's Dilemma
Год выпуска: 1947
Страна: США
Жанр: Триллер, детектив
Продолжительность: 00:59:40
Перевод: Профессиональный (многоголосый закадровый)
Cубтитры: нет
Оригинальная аудиодорожка: английский

Режиссер: Джон Роулинз / John Rawlins

В ролях: Ральф Бёрд, Лайл Лэтелл, Кэй Кристофер, Джек Ламберт, Иэн Кит, Бернадин Хэйес, Джимми Конлин, Уильям Б. Дэвидсон, Тони Баррет, Том Кин, Эл Бридж, Вэйд Кросби, Уильям Гулд, Гарри Харви, Том Лондон, Чарльз Марш, Шон МакКлори, Фрэнк Миллс, Джейсон Робардс ст., Гарри Стрэндж, Елена Уоррен.

Описание: # 1. По мотивам комиксов Честера Гулда о сыщике Дике Трейси. Со склада украдена партия мехов, при этом, без особой на то нужды, убит сторож.
# 2. Дик расследует кражу меховых шуб, надувательство со страховкой и несколько убийств. Все это связано с огромным головорезом, который имеет крюк вместо правой руки.




Рип: Ultam

Качество видео: DVDRip
Формат видео: AVI
Видео кодек: XviD
Аудио кодек: MP3
Видео: 624x464 (1.34:1), 23.976 fps, XviD build 46 ~1794 kbps avg, 0.26 bit/pixel
Аудио 1: 48 kHz, MPEG Layer 3, 2 ch, ~128.00 kbps avg (рус)
Аудио 2: 48 kHz, MPEG Layer 3, 2 ch, ~128.00 kbps avg (англ)
E:INTERNETDik.Trejsy.Dilemma.1947.XviD.DVDRip.by.Ultam.avi
General
Complete name : E:INTERNETDik.Trejsy.Dilemma.1947.XviD.DVDRip.by.Ultam.avi
Format : AVI
Format/Info : Audio Video Interleave
File size : 881 MiB
Duration : 59mn 40s
Overall bit rate : 2 065 Kbps
Writing application : VirtualDubMod 1.5.10.2 (build 2542/release)
Writing library : VirtualDubMod build 2542/release
Video #0
ID : 0
Format : MPEG-4 Visual
Format profile : Advanced Simple@L5
Format settings, BVOP : 2
Format settings, QPel : No
Format settings, GMC : No warppoints
Format settings, Matrix : Default (H.263)
Codec ID : XVID
Codec ID/Hint : XviD
Duration : 59mn 40s
Bit rate : 1 795 Kbps
Width : 624 pixels
Height : 464 pixels
Display aspect ratio : 4:3
Frame rate : 23.976 fps
Color space : YUV
Chroma subsampling : 4:2:0
Bit depth : 8 bits
Scan type : Progressive
Compression mode : Lossy
Bits/(Pixel*Frame) : 0.259
Stream size : 766 MiB (87%)
Writing library : XviD 1.1.2 (UTC 2006-11-01)
Audio #1
ID : 1
Format : MPEG Audio
Format version : Version 1
Format profile : Layer 3
Mode : Joint stereo
Codec ID : 55
Codec ID/Hint : MP3
Duration : 59mn 40s
Bit rate mode : Constant
Bit rate : 128 Kbps
Channel(s) : 2 channels
Sampling rate : 48.0 KHz
Compression mode : Lossy
Stream size : 54.6 MiB (6%)
Alignment : Aligned on interleaves
Interleave, duration : 42 ms (1.00 video frame)
Interleave, preload duration : 504 ms
Audio #2
ID : 2
Format : MPEG Audio
Format version : Version 1
Format profile : Layer 3
Mode : Joint stereo
Codec ID : 55
Codec ID/Hint : MP3
Duration : 59mn 40s
Bit rate mode : Constant
Bit rate : 128 Kbps
Channel(s) : 2 channels
Sampling rate : 48.0 KHz
Compression mode : Lossy
Stream size : 54.6 MiB (6%)
Alignment : Aligned on interleaves
Interleave, duration : 42 ms (1.00 video frame)
Interleave, preload duration : 504 ms
pb.wtf



Скачать Дик Трейси: Дилемма через торрент http://i4.fastpic.ru/big/2011/0317/02/59379dafa3945b9e0b257fb62a8fe202.jpg Скачать фильм Дик Трейси: Дилемма через торрент бесплантно в хорошем качестве Описание: # По мотивам комиксов Честера Гулда о сыщике Дике Трейси. Со склада украдена партия мехов, при этом, без особой на то нужды, ... 8.5 10 6
Info! Золотая раздача, скачанное не засчитывается.
Торрент: Зарегистрирован [2013-07-19 15:12] · скачан: 14 раз
Статус: √ проверено
Размер: 881 MB
Как cкачать? Как скачать Дик Трейси: Дилемма через торрент | qTorrent

28-11-2019 20:33  

Отключить всю рекламу на сайте

    Дорогой пользователь! Огромная просьба, поблагодарите релизера, оцените раздачу и оставьте свои комментарий, если Вы скачали Дик Трейси: Дилемма через торрент бесплатно! Внесите свою лепту в развитие PiratBit!
    Комментировать посты могут только пользователи прошедшие не сложную регистрацию
    Показать сообщения:    

    Дик Трейси: Дилемма через торрент
    Скачать бесплатно Дик Трейси: Дилемма
    Дик Трейси: Дилемма скачать торрент
    Дик Трейси: Дилемма смотреть онлайн
    Cкачать фильм Дик Трейси: Дилемма бесплатно
    Дик Трейси: Дилемма скачать торрент в хорошем качестве
    Дик Трейси: Дилемма смотреть онлайн бесплатно в хорошем качестве


    Вы не можете начинать темы
    Вы не можете отвечать на сообщения
    Вы не можете редактировать свои сообщения
    Вы не можете удалять свои сообщения
    Вы не можете голосовать в опросах
    Вы не можете прикреплять файлы к сообщениям
    Вы можете скачивать файлы