MEGA SALE -50% FORZA HORIZON 4 ULTIMATE+ВСЕ DLC+ОНЛАЙН всего за 599р. 299 руб. (супер цена). Внимание количество ограничено!!!

iTunes

1+1

iTunes

мы

iTunes

1

iTunes

Чернобыль

iTunes

Ральф против интернета

Лицензия

ПШазам

Лицензия

Игра престолов

Лицензия

30
pack

ВАЖНО

!!Акция!!

Alien_RageХит недели

RePack

Resident Evil 21

ИГРА 18+

pack

RePack

Metro:Exodus

!!Акция!!

Alien_Rage

RePack

fifa19

RePack

Assassins Creed: Odyssey

RePack

NEED FOR SPEED™ PAYBACK

3 сезон

9 сезон

Бесстыжие 9 сезон

Все сериалы

все сериалы на PB.wtf

RePack

FAR CRY 5
Ребята, катастрофически не хватает 7730р. для оплаты серверов за АВГУСТ (всвязи с блокировками трафик упал в 3 раза), 1-2р., выручайте.
  

Автомобиль-беглец / Runaway Car (Джек Шолдер / Jack Sholder) [1997 г., триллер, приключения, DVDRip] [MVO] pb.wtf

Автомобиль-беглец через торрент pb.wtf

Размер: 911 MB | Добавлен: 6 лет 2 мес. назад | Торрент скачан:143 раза
Скачать  

19-07-2013 16:47 Автомобиль-беглец Скачать торрент  

Автомобиль-беглец / Runaway Car
Год выпуска: 1997
Страна: США
Жанр: триллер, приключения
Продолжительность: 01:26:36
Перевод: Профессиональный (многоголосый, закадровый) [Екатеринбург Арт]
Русские субтитры: нет

Режиссер: Джек Шолдер / Jack Sholder

В ролях: Джадж Райнхолд, Нина Семашко, Брайан Хукс, Пол Эйдинг, Глен Моршауэр, Брайан Редди, Леон Кэм Брэйнэрд, Э.Дж. Каллахан, Мари Читхэм

Описание: В основу фильма положены реальные события. У Дженни был плохой день на работе, и вечером она решила съездить к матери. В гараже она встречает программиста, у которого сломалась машина. Он очень спешил, и Дженни согласилась его подвезти. По дороге к ним присоединяется маленькая племянница Дженни и человек, на которого она чуть не наехала. Но самое худшее еще впереди. У машины отказали акселератор и коробка передач, и теперь она мчится с бешеной скоростью навстречу смерти. Полиция и служба спасения пытаются помочь пассажирам, но их попытки одна за другой заканчиваются неудачно..



Качество: DVDRip
Формат: AVI
Видео кодек: XviD
Аудио кодек: MP3
Видео : 640x480 (1.33:1), 25 fps, XviD MPEG-4 ~1199 kbps avg, 0.16 bit/pixel
Аудио 1: 44 kHz, MPEG Layer 3, 2 ch, ~128.00 kbps avg (Rus)
Аудио 2: 44 kHz, MPEG Layer 3, 2 ch, ~128.00 kbps avg (Eng)
E:INTERNETRunaway.Car.1997.DVDRip.avi
General
Complete name : E:INTERNETRunaway.Car.1997.DVDRip.avi
Format : AVI
Format/Info : Audio Video Interleave
File size : 911 MiB
Duration : 1h 26mn
Overall bit rate : 1 471 Kbps
Writing application : VirtualDubMod 1.5.10.2 (build 2540/release)
Writing library : VirtualDubMod build 2540/release
Video #0
ID : 0
Format : MPEG-4 Visual
Format profile : Simple@L3
Format settings, BVOP : No
Format settings, QPel : No
Format settings, GMC : No warppoints
Format settings, Matrix : Default (H.263)
Codec ID : XVID
Codec ID/Hint : XviD
Duration : 1h 26mn
Bit rate : 1 200 Kbps
Width : 640 pixels
Height : 480 pixels
Display aspect ratio : 4:3
Frame rate : 25.000 fps
Color space : YUV
Chroma subsampling : 4:2:0
Bit depth : 8 bits
Scan type : Progressive
Compression mode : Lossy
Bits/(Pixel*Frame) : 0.156
Stream size : 743 MiB (82%)
Writing library : Magic0432
Audio #1
ID : 1
Format : MPEG Audio
Format version : Version 1
Format profile : Layer 3
Codec ID : 55
Codec ID/Hint : MP3
Duration : 1h 26mn
Bit rate mode : Constant
Bit rate : 128 Kbps
Channel(s) : 2 channels
Sampling rate : 44.1 KHz
Compression mode : Lossy
Delay relative to video : 1s 600ms
Stream size : 79.3 MiB (9%)
Alignment : Split accross interleaves
Interleave, duration : 40 ms (1.00 video frame)
Interleave, preload duration : 500 ms
Writing library : LAME3.98r
Encoding settings : -m s -V 4 -q 2 -lowpass 17 -b 128
Audio #2
ID : 2
Format : MPEG Audio
Format version : Version 1
Format profile : Layer 3
Mode : Joint stereo
Mode extension : MS Stereo
Codec ID : 55
Codec ID/Hint : MP3
Duration : 1h 26mn
Bit rate mode : Constant
Bit rate : 128 Kbps
Channel(s) : 2 channels
Sampling rate : 44.1 KHz
Compression mode : Lossy
Stream size : 79.3 MiB (9%)
Alignment : Split accross interleaves
Interleave, duration : 40 ms (1.00 video frame)
Interleave, preload duration : 500 ms
pb.wtf



Скачать Автомобиль-беглец через торрент http://s61.radikal.ru/i171/1307/ae/3943475b0186.jpg Скачать фильм Автомобиль-беглец через торрент бесплантно в хорошем качестве Описание: В основу фильма положены реальные события. У Дженни был плохой день на работе, и вечером она решила съездить к матери. В гараже ... 9.8 10 4
Info! Золотая раздача, скачанное не засчитывается.
Торрент: Зарегистрирован [2013-07-19 16:47] · скачан: 143 раз
Статус: √ проверено
Размер: 911 MB
Как cкачать? Как скачать Автомобиль-беглец через торрент | qTorrent

% Раздел Тема Автор DL S | L
Фильмы до 2000 г. [ 1.46 GB ] Автомобиль-беглец / Runaway Car [1997 DVDRip] [MVO] killermax2013 Скачать
1 | 0


>> Регистрируемся здесь <<






Отзывы и комментарии о схеме читаем и пишем здесь: ---> Отзывы и комментарии о схеме

Новые благодарочки в телеграм довольных пользователей:
скриншот   скриншот   скриншот   скриншот   скриншот

19-07-2013 17:50 Автомобиль-беглец Скачать торрент  

Класный фильм!!!!!pb.wtf



19-07-2013 18:38 Автомобиль-беглец Скачать торрент  

bubaRP писал(а):

Класный фильм!!!!!

безусловно фильм отличный pb.wtf



19-07-2013 20:40 Автомобиль-беглец Скачать торрент  

Офигенное кино.pb.wtf



    Дорогой пользователь! Огромная просьба, поблагодарите релизера, оцените раздачу и оставьте свои комментарий, если Вы скачали Автомобиль-беглец через торрент бесплатно! Внесите свою лепту в развитие PiratBit!
    Комментировать посты могут только пользователи прошедшие не сложную регистрацию
    Показать сообщения:    

    Автомобиль-беглец через торрент
    Скачать бесплатно Автомобиль-беглец
    Автомобиль-беглец скачать торрент
    Автомобиль-беглец смотреть онлайн
    Cкачать фильм Автомобиль-беглец бесплатно
    Автомобиль-беглец скачать торрент в хорошем качестве
    Автомобиль-беглец смотреть онлайн бесплатно в хорошем качестве


    Вы не можете начинать темы
    Вы не можете отвечать на сообщения
    Вы не можете редактировать свои сообщения
    Вы не можете удалять свои сообщения
    Вы не можете голосовать в опросах
    Вы не можете прикреплять файлы к сообщениям
    Вы можете скачивать файлы