Ссылка на приватное зеркало нашего сайта всего за 1$. Внимание количество ограничено!!!

2 сезон

iTunes

1 сезон

1

iTunes

iTunes

iTunes

1 сезон

RePack

30

ИГРА 18+

pack

ВАЖНО

!!Акция!!

Alien_RageХит недели

RePack

MK11
pack

Забери бонус

RePack

jed

!!Акция!!

Alien_Rage

RePack

fifa19

RePack

Assassins Creed: Odyssey

RePack

NEED FOR SPEED™ PAYBACK

4 сезон

9 сезон

Бесстыжие 9 сезон

Все сериалы

все сериалы на PB.wtf

RePack

FAR CRY 5
  

Робин Гуд: Мужчины в трико / Robin Hood: Men in Tights (Мэл Брукс / Mel Brooks) [ 1993 , Франция, США , мюзикл, комедия, приключения , BDRip 720p , MVO] pb.wtf

Робин Гуд: Мужчины в трико через торрент pb.wtf

Размер: 8.1 GB | Добавлен: 7 лет 3 мес. назад | Торрент скачан:74 раза
Скачать  

19-07-2013 18:07 Робин Гуд: Мужчины в трико Скачать торрент  

Робин Гуд: Мужчины в трико / Robin Hood: Men in Tights Слоган: «Легенда возвращается...»
Год выпуска: 1993
Страна: Франция, США
Жанр: мюзикл, комедия, приключения
Продолжительность: 01:44:25
Перевод: Профессиональный (многоголосый, закадровый)
Авторский (Володарский Леонид)

Режиссер: Мэл Брукс / Mel Brooks
В ролях: Кэри Элвис (Robin Hood), Ричард Льюис (Prince John), Роджер Рис (Sheriff of Rotingham), Эми Ясбек (Maid Marian), Марк Блэнкфилд (Blinkin), Дэйв Шаппелл (Ahchoo), Айзек Хейз (Asneeze), Меган Кэвэна (Broomhilde), Эрик Аллан Крамер (Little John), Мэттью Порретта (Will Scarlet O'Hara), Трейси Уллмен (Latrine), Патрик Стюарт (King Richard)
Описание: Робин и его компания в трико, срывая с себя регалии вместе со штанами, должны свергнуть злобного принца Джона и найти ключ к сердцу прекрасной девы Мэриан... а так же к поясу верности...
Рейтинг
kinopoisk.ru: 6.964 (4887)
imdb.com: 6.50 (62 121)
MPAA: PG-13 - Детям до 13 лет просмотр не желателен
  • Качество: BDRip 720p
  • Формат: MKV
  • Видео кодек: AVC
  • Аудио кодек: AC3/DTS
  • Видео: AVC, 1280x692 (1.850), 5976 kbps, 23,976 fps, 0,281 bpp
  • Аудио №1: русский / AC3 / 2.0 / 48 kHz / 192 kbps / 16 bit |Многоголосый закадровый, Видеосервис, с издания Карусели|
  • Аудио №2: русский / AC3 / 2.0 / 48 kHz / 192 kbps / 16 bit |Многоголосый закадровый, Видеосервис|
  • Аудио №3: русский / DTS / 5.1 / 48 kHz / 1510 kbps / 24 bit |Многоголосый закадровый, Карусель|
  • Аудио №4: русский / DTS / 5.1 / 48 kHz / 1510 kbps / 24 bit |Одноголосый закадровый, Л.Володарский|
  • Аудио №5: английский / DTS / 5.1 / 48 kHz / 1510 kbps / 24 bit
  • Аудио №6: английский / AC3 / 2.0 / 48 kHz / 224 kbps / 16 bit |Director's commentary|
    • В сцене, в ходе которой король Ричард (Патрик Стюарт) целует Мэриан, герой Мэла Брукса говорит: «Хорошо быть королем». Ту же фразу произносит и король Людовик XVI, сыграный Мэлом Бруксом, в его фильме 1981 года «Всемирная история».
    • На протяжении всего фильма родинка на лице принца Джона (Ричард Льюис) меняет свое местоположение: то она находится на его левой щеке, то - на правой, то - на подбородке, то - на лбу, то - на верхней губе. Этот прием пародирует ленту «Робин Гуд: Принц воров», в которой родинка украшала лицо героя Алана Рикмана.
    • Играя короля Ричарда, Патрик Стюарт говорил с сильным шотландским акцентом, имитируя игру Шона Коннери в фильме «Робин Гуд: Принц Воров».
    • Роль палача исполнил Роберт Риджли, который до этого играл палача в «сверкающих седлах», снятых Мэлом Бруксом в 1974 году.
    • По слухам, идею пародии на фильмы о Робин Гуде подал сын одного из студийных чиновников.
    • Сцена, в которой Дон Джованни (Дом ДеЛуис) достает изо рта ватные шарики, пародирует «Крестного отца». Известно, что Марлон Брандо во время кинопробы на роль Вито Корлеоне подкладывал в рот вату, чтобы быть похожим на бульдога.
    • Грязный Эцио, сыгранный Джо Диммиком, в сценарии именовался грязным Гарри, поскольку Диммик очень похож на Клинта Иствуда. Однако, когда на съемки однажды приехал итальянский режиссер Эцио Греджо, Мэл Брукс решил шутки ради назвать этого героя в честь своего коллеги.
    • В сцене, где группа солдат избивает Ачху (Дэвид Чаппель), Робин Гуд (Кэри Элвис) произносит фразу: «Надеюсь, что кто-нибудь снял это на видео», которая служит намеком на шумный скандал, возникший в связи с избиением Родни Кинга лос-анджелесскими полицейскими в начале 90-х годов и запечатленный кем-то на видеопленку. Как известно, этот инцидент вызвал волнения в Лос-Анджелесе.
    • еще 5 фактов
    General
    Unique ID : 252864178058502145190970352203244877932 (0xBE3BDE866B4DAA2A968E92C02845B86C)
    Complete name : D:Загрузки из интернетаRobin.Hood.Men.in.Tights.1993.720p.4xRus.2xEng.HDCLUB.mkv
    Format : Matroska
    Format version : Version 2
    File size : 8.10 GiB
    Duration : 1h 44mn
    Overall bit rate : 11.1 Mbps
    Movie name : Robin Hood: Men in Tights (1993) - Release for HDCLUB by -DaRkY-
    Encoded date : UTC 2010-03-27 04:25:43
    Writing application : mkvmerge v3.0.0 ('Hang up your Hang-Ups') built on Dec 12 2009 15:20:35
    Writing library : libebml v0.7.9 + libmatroska v0.8.1

    Video
    ID : 1
    Format : AVC
    Format/Info : Advanced Video Codec
    Format profile : High@L4.1
    Format settings, CABAC : Yes
    Format settings, ReFrames : 8 frames
    Codec ID : V_MPEG4/ISO/AVC
    Duration : 1h 44mn
    Bit rate : 5 976 Kbps
    Width : 1 280 pixels
    Height : 692 pixels
    Display aspect ratio : 1.850
    Frame rate : 23.976 fps
    Color space : YUV
    Chroma subsampling : 4:2:0
    Bit depth : 8 bits
    Scan type : Progressive
    Bits/(Pixel*Frame) : 0.281
    Stream size : 4.20 GiB (52%)
    Title : Release for HDCLUB by -DaRkY-
    Writing library : x264 core 88 r1471 1144615
    Encoding settings : cabac=1 / ref=8 / deblock=1:-3:-3 / analyse=0x3:0x113 / me=umh / subme=10 / psy=1 / psy_rd=1.00:0.00 / mixed_ref=1 / me_range=32 / chroma_me=1 / trellis=2 / 8x8dct=1 / cqm=0 / deadzone=21,11 / fast_pskip=0 / chroma_qp_offset=-2 / threads=6 / sliced_threads=0 / nr=0 / decimate=0 / mbaff=0 / constrained_intra=0 / bframes=10 / b_pyramid=2 / b_adapt=2 / b_bias=0 / direct=3 / wpredb=1 / wpredp=2 / keyint=250 / keyint_min=25 / scenecut=40 / intra_refresh=0 / rc_lookahead=80 / rc=2pass / mbtree=1 / bitrate=5976 / ratetol=1.0 / qcomp=0.70 / qpmin=10 / qpmax=51 / qpstep=4 / cplxblur=20.0 / qblur=0.5 / ip_ratio=1.40 / aq=1:0.50
    Language : English
    Default : Yes
    Forced : No

    Audio #1
    ID : 2
    Format : AC-3
    Format/Info : Audio Coding 3
    Mode extension : CM (complete main)
    Codec ID : A_AC3
    Duration : 1h 44mn
    Bit rate mode : Constant
    Bit rate : 192 Kbps
    Channel(s) : 2 channels
    Channel positions : Front: L R
    Sampling rate : 48.0 KHz
    Bit depth : 16 bits
    Compression mode : Lossy
    Stream size : 143 MiB (2%)
    Title : AC3 2.0 192 kbps Многоголосый закадровый, Видеосервис (с издания Карусели)
    Language : Russian
    Default : Yes
    Forced : No

    Audio #2
    ID : 3
    Format : AC-3
    Format/Info : Audio Coding 3
    Mode extension : CM (complete main)
    Codec ID : A_AC3
    Duration : 1h 44mn
    Bit rate mode : Constant
    Bit rate : 192 Kbps
    Channel(s) : 2 channels
    Channel positions : Front: L R
    Sampling rate : 48.0 KHz
    Bit depth : 16 bits
    Compression mode : Lossy
    Stream size : 143 MiB (2%)
    Title : AC3 5.1 448 kbps Многоголосый закадровый, Видеосервис
    Language : Russian
    Default : No
    Forced : No

    Audio #3
    ID : 4
    Format : DTS
    Format/Info : Digital Theater Systems
    Codec ID : A_DTS
    Duration : 1h 44mn
    Bit rate mode : Constant
    Bit rate : 1 510 Kbps
    Channel(s) : 6 channels
    Channel positions : Front: L C R, Side: L R, LFE
    Sampling rate : 48.0 KHz
    Bit depth : 24 bits
    Compression mode : Lossy
    Stream size : 1.10 GiB (14%)
    Title : DTS 5.1 1536 kbps Многоголосый закадровый, Карусель
    Language : Russian
    Default : No
    Forced : No

    Audio #4
    ID : 5
    Format : DTS
    Format/Info : Digital Theater Systems
    Codec ID : A_DTS
    Duration : 1h 44mn
    Bit rate mode : Constant
    Bit rate : 1 510 Kbps
    Channel(s) : 6 channels
    Channel positions : Front: L C R, Side: L R, LFE
    Sampling rate : 48.0 KHz
    Bit depth : 24 bits
    Compression mode : Lossy
    Stream size : 1.10 GiB (14%)
    Title : DTS 5.1 1536 kbps Одноголосый закадровый, Л.Володарский
    Language : Russian
    Default : No
    Forced : No

    Audio #5
    ID : 6
    Format : DTS
    Format/Info : Digital Theater Systems
    Codec ID : A_DTS
    Duration : 1h 44mn
    Bit rate mode : Constant
    Bit rate : 1 510 Kbps
    Channel(s) : 6 channels
    Channel positions : Front: L C R, Side: L R, LFE
    Sampling rate : 48.0 KHz
    Bit depth : 24 bits
    Compression mode : Lossy
    Stream size : 1.10 GiB (14%)
    Title : DTS 5.1 1536 kbps
    Language : English
    Default : No
    Forced : No

    Audio #6
    ID : 7
    Format : AC-3
    Format/Info : Audio Coding 3
    Mode extension : CM (complete main)
    Codec ID : A_AC3
    Duration : 1h 44mn
    Bit rate mode : Constant
    Bit rate : 224 Kbps
    Channel(s) : 2 channels
    Channel positions : Front: L R
    Sampling rate : 48.0 KHz
    Bit depth : 16 bits
    Compression mode : Lossy
    Stream size : 167 MiB (2%)
    Title : AC3 2.0 224 kbps Director's commentary
    Language : English
    Default : No
    Forced : No

    Text #1
    ID : 8
    Format : UTF-8
    Codec ID : S_TEXT/UTF8
    Codec ID/Info : UTF-8 Plain Text
    Title : Songs only
    Language : Russian
    Default : Yes
    Forced : No

    Text #2
    ID : 9
    Format : UTF-8
    Codec ID : S_TEXT/UTF8
    Codec ID/Info : UTF-8 Plain Text
    Title : Карусел
    Language : Russian
    Default : No
    Forced : No

    Text #3
    ID : 10
    Format : UTF-8
    Codec ID : S_TEXT/UTF8
    Codec ID/Info : UTF-8 Plain Text
    Language : English
    Default : No
    Forced : No

    Menu
    00:00:00.000 : en:Main Titles
    00:03:25.622 : en:Sherwood Forest Rap
    00:04:31.730 : en:Le Dungeon
    00:10:22.580 : en:The Journey Home
    00:12:40.051 : en:Ahchoo
    00:15:14.080 : en:It's Good to Be Home
    00:19:42.473 : en:The Sheriff of Rottingham
    00:23:13.350 : en:Marian
    00:26:17.868 : en:Bad News
    00:28:48.018 : en:Latrine
    00:32:04.840 : en:Little John
    00:36:41.616 : en:Will Scarlet O'Hara
    00:39:11.849 : en:The Prince's Party
    00:43:22.558 : en:The Party Gets Rough
    00:47:21.380 : en:From Royalty to Recycling
    00:49:20.291 : en:Noble Words
    00:51:43.100 : en:Basic Training
    00:53:39.091 : en:The Secret Weapon
    00:55:49.763 : en:Rabbi Tuckman
    00:58:46.857 : en:Don Giovanni's Plan
    01:03:23.174 : en:Warning Robin
    01:06:37.327 : en:Men in Tights
    01:10:01.030 : en:The Night Is Young and You're So Beautiful
    01:14:09.028 : en:The Archery Contest
    01:18:27.995 : en:One More Shot
    01:20:42.254 : en:Under Arrest
    01:23:21.538 : en:The Wedding
    01:26:21.927 : en:Revolution
    01:29:13.223 : en:The Fight Scene
    01:32:27.208 : en:The Magic Pill
    01:34:44.804 : en:King Richard's Return
    01:39:28.004 : en:End Titles
    pb.wtf



  • Скачать Робин Гуд: Мужчины в трико через торрент http://i3.imageban.ru/out/2013/07/19/efc74d30fbadfc14e0acf170860b0157.png Скачать фильм Робин Гуд: Мужчины в трико через торрент бесплантно в хорошем качестве Описание: Робин и его компания в трико, срывая с себя регалии вместе со штанами, должны свергнуть злобного принца Джона и найти ключ к ... 9.9 10 16
    Info! Золотая раздача, скачанное не засчитывается.
    Торрент: Зарегистрирован [2013-07-19 18:08] · скачан: 74 раз
    Статус: √ проверено
    Размер: 8.1 GB
    Как cкачать? Как скачать Робин Гуд: Мужчины в трико через торрент | qTorrent

    % Раздел Тема Автор DL S | L
    Фильмы до 2000 г. [ 1.73 GB ] Робин Гуд: Мужчины в трико / Robin Hood: Men in Tights [1993 HDTVRip] feldeger Скачать
    1 | 0

    28-11-2019 20:33  

    Отключить всю рекламу на сайте

      Дорогой пользователь! Огромная просьба, поблагодарите релизера, оцените раздачу и оставьте свои комментарий, если Вы скачали Робин Гуд: Мужчины в трико через торрент бесплатно! Внесите свою лепту в развитие PiratBit!
      Комментировать посты могут только пользователи прошедшие не сложную регистрацию
      Показать сообщения:    

      Робин Гуд: Мужчины в трико через торрент
      Скачать бесплатно Робин Гуд: Мужчины в трико
      Робин Гуд: Мужчины в трико скачать торрент
      Робин Гуд: Мужчины в трико смотреть онлайн
      Cкачать фильм Робин Гуд: Мужчины в трико бесплатно
      Робин Гуд: Мужчины в трико скачать торрент в хорошем качестве
      Робин Гуд: Мужчины в трико смотреть онлайн бесплатно в хорошем качестве


      Вы не можете начинать темы
      Вы не можете отвечать на сообщения
      Вы не можете редактировать свои сообщения
      Вы не можете удалять свои сообщения
      Вы не можете голосовать в опросах
      Вы не можете прикреплять файлы к сообщениям
      Вы можете скачивать файлы