Ссылка на приватное зеркало нашего сайта всего за 1$. Внимание количество ограничено!!!

2 сезон

iTunes

1 сезон

1

2 сезон

2 сезон

iTunes

1 сезон

RePack

30

Новинка

ВАЖНО

ИГРА 18+

pack

RePack

MK11
pack

Забери бонус

RePack

jed

!!Акция!!

Alien_Rage

RePack

fifa19

RePack

Assassins Creed: Odyssey

RePack

NEED FOR SPEED™ PAYBACK

4 сезон

9 сезон

Бесстыжие 9 сезон

Все сериалы

все сериалы на PB.wtf

RePack

FAR CRY 5
  

Красная планета / Red Planet (Энтони Хоффман / Antony Hoffman) [2000 г., фантастика, боевик, триллер, HDRip] Dub pb.wtf

Красная планета через торрент pb.wtf

Раздают: 1 [ 0 KB/s ]
Размер: 1.46 GB | Добавлен: 7 лет 4 мес. назад | Торрент скачан:450 раз
Скачать  

19-07-2013 22:38 Красная планета Скачать торрент  

Красная планета / Red PlanetГод выпуска: 2000
Страна: США, Австралия
Жанр: фантастика, боевик, триллер
Продолжительность: 01:46:29
Перевод: Профессиональный (полное дублирование)
Режиссер: Энтони Хоффман / Antony Hoffman
В ролях: Вэл Килмер (Robby Gallagher), Кэрри-Энн Мосс (Cmdr. Kate Bowman), Том Сайзмор (Dr. Quinn Burchenal), Бенджамин Брэтт (Lt. Ted Santen), Саймон Бейкер (Chip Pettengill), Теренс Стэмп (Dr. Bud Chantilas), Джессика Мортон (Website Fan), Кэролайн Босси (Website Fan), Боб Нилл (Houston Control, озвучка), Нил Росс (Space Suit, озвучка, в титрах не указан)
Описание: В 21 веке Земля вымирает, и жить на ней становится все труднее. Ученые надеются основать колонию на Марсе. Команда из шести астронавтов отправляется на планету, чтобы осмотреть планету с целью ее пригодности для жизни.
Однако после полугодового полета к цели при самой посадке, возникают проблемы. Теперь перед астронавтами стоит проблема - как улететь с этой планеты.
Рейтинг
kinopoisk.ru: 6.494 (3280)
imdb.com: 5.50 (34 162)
MPAA: PG-13 - Детям до 13 лет просмотр не желателен
Качество: HDRip
Формат: AVI
Видео кодек: XviD
Аудио кодек: AC3
Видео: XviD, 720x304 (2.35:1), 1564 kbps, 23,976 fps, 0,298 bpp
Аудио: AC3 / 5.1 / 48 kHz / 384 kbps / 16 bit
General
Complete name : D:ТорентыRed.Planet.2000.HDRip.Dub.All.Films.avi
Format : AVI
Format/Info : Audio Video Interleave
File size : 1.46 GiB
Duration : 1h 46mn
Overall bit rate : 1 958 Kbps
Movie name : Red.Planet.2000.HDRip.Dub.All.Films
Director : DIABLO93
Genre : Adventure
Writing application : VirtualDubMod 1.5.10.3 | www.virtualdub-fr.org || (build 2550/release)
Original source form/Name : Movie
Copyright : Rutracker.org (All Films)

Video
ID : 0
Format : MPEG-4 Visual
Format profile : Advanced Simple@L5
Format settings, BVOP : 2
Format settings, QPel : No
Format settings, GMC : No warppoints
Format settings, Matrix : Custom
Codec ID : XVID
Codec ID/Hint : XviD
Duration : 1h 46mn
Bit rate : 1 565 Kbps
Width : 720 pixels
Height : 304 pixels
Display aspect ratio : 2.35:1
Frame rate : 23.976 fps
Color space : YUV
Chroma subsampling : 4:2:0
Bit depth : 8 bits
Scan type : Progressive
Compression mode : Lossy
Bits/(Pixel*Frame) : 0.298
Stream size : 1.16 GiB (80%)
Writing library : XviD 63

Audio
ID : 1
Format : AC-3
Format/Info : Audio Coding 3
Mode extension : CM (complete main)
Codec ID : 2000
Duration : 1h 46mn
Bit rate mode : Constant
Bit rate : 384 Kbps
Channel(s) : 6 channels
Channel positions : Front: L C R, Side: L R, LFE
Sampling rate : 48.0 KHz
Bit depth : 16 bits
Compression mode : Lossy
Stream size : 292 MiB (20%)
Alignment : Split accross interleaves
Interleave, duration : 42 ms (1.00 video frame)
Interleave, preload duration : 500 ms
pb.wtf



Скачать Красная планета через торрент http://i3.imageban.ru/out/2013/07/20/edcdc21de3f3ae0e15b2615fa13cedb2.png Скачать фильм Красная планета через торрент бесплантно в хорошем качестве Описание: В 21 веке Земля вымирает, и жить на ней становится все труднее. Ученые надеются основать колонию на Марсе. Команда из шести ... 9.8 10 20
Info! Золотая раздача, скачанное не засчитывается.
Торрент: Зарегистрирован [2013-07-19 22:38] · скачан: 450 раз
Статус: √ проверено
Размер: 1.46 GB
Как cкачать? Как скачать Красная планета через торрент | qTorrent

% Раздел Тема Автор DL S | L
Фильмы [HD 720p, 1080p] (Хороший звук DUB, MVO) [ 4.96 GB ] Красная планета / Red Planet [2000 BDRip 720p by msltel] DUB MVO AVO VO msltel Скачать
1 | 0
Фильмы [HD 720p, 1080p] (Хороший звук DUB, MVO) [ 12.88 GB ] Красная планета / Red Planet [2000 BDRip 1080p by msltel] DUB MVO AVO VO msltel Скачать
1 | 0
Фильмы [HD 720p, 1080p] (Хороший звук DUB, MVO) [ 3.11 GB ] Красная планета / Red Planet [2000 BDRip 720p от Leonardo] DUB Ворон Скачать
1 | 0

28-11-2019 20:33  

Отключить всю рекламу на сайте

    Дорогой пользователь! Огромная просьба, поблагодарите релизера, оцените раздачу и оставьте свои комментарий, если Вы скачали Красная планета через торрент бесплатно! Внесите свою лепту в развитие PiratBit!
    Комментировать посты могут только пользователи прошедшие не сложную регистрацию
    Показать сообщения:    

    Красная планета через торрент
    Скачать бесплатно Красная планета
    Красная планета скачать торрент
    Красная планета смотреть онлайн
    Cкачать фильм Красная планета бесплатно
    Красная планета скачать торрент в хорошем качестве
    Красная планета смотреть онлайн бесплатно в хорошем качестве


    Вы не можете начинать темы
    Вы не можете отвечать на сообщения
    Вы не можете редактировать свои сообщения
    Вы не можете удалять свои сообщения
    Вы не можете голосовать в опросах
    Вы не можете прикреплять файлы к сообщениям
    Вы можете скачивать файлы