Мега распродажа FORZA HORIZON 4 ULTIMATE+ВСЕ DLC+ОНЛАЙН всего за 499р. 349 руб. (супер цена). Внимание количество ограничено!!!

iTunes

1+1

iTunes

мы

iTunes

1

1 сезон

Чернобыль

1 сезон

Ральф против интернета

Лицензия

ПШазам

8 сезон

Игра престолов

Лицензия

30
pack

ВАЖНО

!!Акция!!

Alien_RageХит недели

RePack

Resident Evil 21

ИГРА 18+

pack

RePack

Metro:Exodus

!!Акция!!

Alien_Rage

RePack

fifa19

RePack

Assassins Creed: Odyssey

RePack

NEED FOR SPEED™ PAYBACK

3 сезон

9 сезон

Бесстыжие 9 сезон

Все сериалы

все сериалы на PB.wtf

RePack

FAR CRY 5
Ребята, катастрофически не хватает 2730р. для оплаты серверов за ИЮНЬ (всвязи с блокировками трафик упал в 3 раза), 1-2р., выручайте.
  

Невиновный / An innocent man (Питер Йейтс / Peter Yates) [1989, боевик, драма, криминал, BDRip] [Dub] pb.wtf

Невиновный через торрент pb.wtf

Размер: 1.47 GB | Добавлен: 5 лет 11 мес. назад | Торрент скачан:25 раз
Скачать  

20-07-2013 14:00 Невиновный Скачать торрент  

Невиновный / An innocent man«Два копа посадили невиновного. Это была самая большая ошибка в их жизни»
Год выпуска: 1989
Страна: США
Жанр: боевик, драма, криминал
Продолжительность: 01:53:00
Перевод: Профессиональный (дублированный)
Cубтитры: нет

Режиссер: Питер Йейтс / Peter Yates

В ролях: Том Селлек, Ф. Мюррэй Абрахам, Лайла Робинс, Дэвид Раш, Ричард Янг, Баджа Джола, Тодд Графф, М. К. Гейни, Питер Ван Норден, Брюс А. Янг

Описание: Жизнь преуспевающего авиационного инженера Джими Рэйнвуда давно вошла в привычное русло. Все изменилось в одночасье: Джими оказывается в тюрьме по ложному обвинению. Двое коррумпированных полицейских навсегда перечеркнули его счастье и надежду на будущее. По ту сторону неприступной стены для Джими открылся новый страшный мир, где не живут, а выживают.
Но на свободе у невиновного осталась одна заветная цель, ради которой стоит бороться: он ждет того момента, когда сможет взглянуть в лицо своим врагам, чтобы они увидели в его глазах очищающее пламя мести.




Качество видео: BDRip
Формат видео: AVI
Видео кодек: XviD
Аудио кодек: AC3
Видео: 720x400 (1.80:1), 29.970 fps, XviD build 73 ~1645 kbps avg, 0.19 bit/pixel
Аудио: 48 kHz, AC3 Dolby Digital, 2/0 (L,R) ch, ~192.00 kbps avg
E:INTERNETAn.Innocent.Man.1989.BDRip.avi
General
Complete name : E:INTERNETAn.Innocent.Man.1989.BDRip.avi
Format : AVI
Format/Info : Audio Video Interleave
File size : 1.47 GiB
Duration : 1h 53mn
Overall bit rate : 1 849 Kbps
Writing application : VirtualDubMod 1.5.10.3 |(build 2550/release)
Writing library : VirtualDubMod build 2550/release
Video #0
ID : 0
Format : MPEG-4 Visual
Format profile : Advanced Simple@L5
Format settings, BVOP : 1
Format settings, QPel : No
Format settings, GMC : No warppoints
Format settings, Matrix : Custom
Codec ID : XVID
Codec ID/Hint : XviD
Duration : 1h 53mn
Bit rate : 1 645 Kbps
Width : 720 pixels
Height : 400 pixels
Display aspect ratio : 16:9
Frame rate : 29.970 fps
Color space : YUV
Chroma subsampling : 4:2:0
Bit depth : 8 bits
Scan type : Progressive
Compression mode : Lossy
Bits/(Pixel*Frame) : 0.191
Stream size : 1.30 GiB (89%)
Writing library : XviD 73
Audio #1
ID : 1
Format : AC-3
Format/Info : Audio Coding 3
Mode extension : CM (complete main)
Format settings, Endianness : Big
Codec ID : 2000
Duration : 1h 53mn
Bit rate mode : Constant
Bit rate : 192 Kbps
Channel(s) : 2 channels
Channel positions : Front: L R
Sampling rate : 48.0 KHz
Bit depth : 16 bits
Compression mode : Lossy
Stream size : 156 MiB (10%)
Alignment : Split accross interleaves
Interleave, duration : 33 ms (1.00 video frame)
Interleave, preload duration : 500 ms
pb.wtf



Скачать Невиновный через торрент http://i4.imageban.ru/out/2012/02/24/fe26ee04d59d333bc269994f1b6bded0.jpg Скачать фильм Невиновный через торрент бесплантно в хорошем качестве Описание: Жизнь преуспевающего авиационного инженера Джими Рэйнвуда давно вошла в привычное русло. Все изменилось в одночасье: Джими ... 10 10 5
Info! Золотая раздача, скачанное не засчитывается.
Торрент: Зарегистрирован [2013-07-20 14:00] · скачан: 25 раз
Статус: √ проверено
Размер: 1.47 GB
Как cкачать? Как скачать Невиновный через торрент | qTorrent


>> Регистрируемся здесь <<






Отзывы и комментарии о схеме читаем и пишем здесь: ---> Отзывы и комментарии о схеме

Новые благодарочки в телеграм довольных пользователей:
скриншот   скриншот   скриншот   скриншот   скриншот
    Дорогой пользователь! Огромная просьба, поблагодарите релизера, оцените раздачу и оставьте свои комментарий, если Вы скачали Невиновный через торрент бесплатно! Внесите свою лепту в развитие PiratBit!
    Комментировать посты могут только пользователи прошедшие не сложную регистрацию
    Показать сообщения:    

    Невиновный через торрент
    Скачать бесплатно Невиновный
    Невиновный скачать торрент
    Невиновный смотреть онлайн
    Cкачать фильм Невиновный бесплатно
    Невиновный скачать торрент в хорошем качестве
    Невиновный смотреть онлайн бесплатно в хорошем качестве


    Вы не можете начинать темы
    Вы не можете отвечать на сообщения
    Вы не можете редактировать свои сообщения
    Вы не можете удалять свои сообщения
    Вы не можете голосовать в опросах
    Вы не можете прикреплять файлы к сообщениям
    Вы можете скачивать файлы