новый адрес
Ссылка на приватное зеркало всего за 1$. Внимание количество ограничено!!!

iTunes

1+1

iTunes

мы

WEB-DL

1

iTunes

Чернобыль

iTunes

Ральф против интернета

Лицензия

ПШазам

Лицензия

Оно 2

Лицензия

30
pack

Вам бонус

ВАЖНО

!!Акция!!

Alien_RageХит недели

RePack

Resident Evil 21

ИГРА 18+

pack

RePack

jed

!!Акция!!

Alien_Rage

RePack

fifa19

RePack

Assassins Creed: Odyssey

RePack

NEED FOR SPEED™ PAYBACK

3 сезон

9 сезон

Бесстыжие 9 сезон

Все сериалы

все сериалы на PB.wtf

RePack

FAR CRY 5
Ребята, катастрофически не хватает 1900р. для оплаты серверов за Октябрь (всвязи с блокировками трафик упал в 3 раза), 1-2р., выручайте.
  

Мимино (Георгий Данелия) [1977, комедия, DVDRip] pb.wtf

Мимино через торрент pb.wtf

Размер: 1.5 GB | Добавлен: 6 лет 4 мес. назад | Торрент скачан:495 раз
Скачать  

20-07-2013 15:35 Мимино Скачать торрент  

Мимино
Год выпуска: 1977
Страна: СССР
Жанр: Комедия,
Продолжительность: 01:31:18
Перевод: Оригинал

Режиссер: Георгий Данелия
Сценарий: Виктория Токарева, Реваз Габриадзе, Георгий Данелия

Премьера в мире: 27 марта 1978

В ролях: Вахтанг (Буба) Кикабидзе, Фрунзе (Фрунзик, Мгер) Мкртчян, Борислав Брондуков, Павел Винник, Арчил Гомиашвили, Микаэла Дроздовская, Марина Дюжева, Петр Любешкин, Николай Деберо, Алексей Алексеев, Савелий Крамаров, Леонид Куравлёв, Евгений Леонов, Николай Граббе, Виктор Шульгин, Абессалом Лория, Елена Проклова, Ипполит Хвичиа, Владимир Басов, Валентина Титова, Котэ Даушвили, Руслан Микаберидзе, Закро Сахвадзе, Русико Морчеладзе, Василий Чхаидзе, Александр Новиков, Георгий Данелия, Эдуард Изотов, Артём Карапетян (голос за кадром),

Описание: Валико Мизандари (его позывные и прозвище - Мимино, что по-грузински значит "ястреб") - пилот "малой" авиации, обслуживающей горные деревушки Верхней Тушетии (Грузия). Свой вертолет "Ми-2" он называет "пепела" - бабочка. (Кстати, помните пепелац из "Кин-дза-дзы!"?..) Как-то раз Мимино встречает в аэропорту своего бывшего однокурсника, который управляет нынче сверхзвуковым авиалайнером "Ту-144" и летает за границу. В его экипажа есть стюардесса Лариса Ивановна, сразу покорившая сердце Мимино. Желая достичь успехов в большой авиации, Валико Мизандари отправляется в Москву...

Доп. информация: 1 июля 1977 года фильм был показан на Международном московском кинофестивале, а 27 марта 1978 года состоялась премьера на большом экране. Фильм был благожелательно принят критикой, получил несколько наград и имел большой успех у зрителей. В советском прокате 1978 года он занял 17-е место, собрав 24,4 миллиона зрителей. Многие фразы из фильма стали крылатыми. Режиссёр-постановщик и исполнители главных ролей были награждены Государственными премиями СССР.

Качество: DVDRip
Формат: AVI
Видео кодек: XviD
Аудио кодек: MP3
Видео: 704x528 (1.33:1), 25 fps, XviD 1.2.1, 1895 kbps avg, 0.20 bit/pixel
Аудио#1: 48 kHz, AC3 Dolby Digital, 3/2 (L,C,R,l,r) + LFE ch, 448.00 kbps avg
скриншот  
скриншот  
скриншот  
скриншот  
скриншот  

Полное имя : Mimino.avi
Формат : AVI
Формат/Информация : Audio Video Interleave
Размер файла : 1,50 Гбайт
Продолжительность : 1 ч. 31 м.
Общий поток : 2352 Кбит/сек
Программа кодирования : VirtualDubMod 1.5.10.3 (build 2550/release)
Библиотека кодирования : VirtualDubMod build 2550/release

Видео
Идентификатор : 0
Формат : MPEG-4 Visual
Профиль формата : Advanced Simple@L5
Параметр BVOP формата : 1
Параметр QPel формата : Нет
Параметр GMC формата : Без точки перехода
Параметр матрицы формата : Выборочная
Режим смешивания : Сжатый битовый поток
Идентификатор кодека : XVID
Идентификатор кодека/Подсказка : XviD
Продолжительность : 1 ч. 31 м.
Битрейт : 1895 Кбит/сек
Ширина : 704 пикселя
Высота : 528 пикселей
Соотношение сторон : 4:3
Частота кадров : 25,000 кадров/сек
Цветовое пространство : YUV
Субдискретизация насыщенности : 4:2:0
Битовая глубина : 8 бит
Тип развёртки : Прогрессивная
Метод сжатия : С потерями
Бит/(Пиксели*Кадры) : 0.204
Размер потока : 1,21 Гбайт (81%)
Библиотека кодирования : XviD 1.2.1 (UTC 2008-12-04)

Аудио
Идентификатор : 1
Формат : AC-3
Формат/Информация : Audio Coding 3
Расширение режима : CM (complete main)
Идентификатор кодека : 2000
Продолжительность : 1 ч. 31 м.
Вид битрейта : Постоянный
Битрейт : 448 Кбит/сек
Каналы : 6 каналов
Расположение каналов : Front: L C R, Side: L R, LFE
Частота : 48,0 КГц
Битовая глубина : 16 бит
Метод сжатия : С потерями
Задержка видео : 1 с. 592 мс.
Размер потока : 292 Мбайт (19%)
Выравнивание : Разделение по промежуткам
Продолжительность промежутка : 40 мс. (1,00 видеокадр)
Время предзагрузки промежутка : 500 мс.


Мимино скачать торрент


pb.wtf



Скачать Мимино через торрент http://i28.fastpic.ru/big/2011/1007/5e/61749b4f8b3f68036268e9eaa9451a5e.jpg Скачать фильм Мимино через торрент бесплантно в хорошем качестве Описание: Валико Мизандари (его позывные и прозвище - Мимино, что по-грузински значит "ястреб") - пилот "малой" авиации, обслуживающей ... 9.9 10 19
Info! Золотая раздача, скачанное не засчитывается.
Торрент: Зарегистрирован [2013-07-20 15:35] · скачан: 495 раз
Статус: √ проверено
Размер: 1.5 GB
Как cкачать? Как скачать Мимино через торрент | qTorrent

% Раздел Тема Автор DL S | L
Наши фильмы (HD, WEB-DL 720p, 1080p) [ 2.18 GB ] Мимино [1977 СССР HDTVRip 720p от AVP Studio] AVP Studio Скачать
1 | 0
Кино СССР [ 1.46 GB ] Мимино [1977 СССР HDTVRip-AVC от AVP Studio] AVP Studio Скачать
1 | 0
Кино СССР [ 746 MB ] Мимино [1977 СССР HDTVRip от AVP Studio] AVP Studio Скачать
1 | 0
Кино СССР [ 1.46 GB ] Мимино [1977 СССР HDTVRip от AVP Studio] AVP Studio Скачать
1 | 0
Кино СССР [ 1.46 GB ] Мимино [1977 СССР DVDRip-AVC от AVP Studio] AVP Studio Скачать
1 | 0
Кино СССР [ 1.37 GB ] Мимино [1977 WEB-DLRip] bober100 Скачать
1 | 0
Наши фильмы (HD, WEB-DL 720p, 1080p) [ 5.96 GB ] Мимино [1977 HDTV 1080i от HDClub] Ворон Скачать
1 | 0


Последний раз редактировалось: Bexram (2013-07-20 17:01), всего редактировалось 2 раз(а)

28-11-2019 20:33  

Отключить всю рекламу на сайте

20-07-2013 15:42 Мимино Скачать торрент  

Есть сиды по DHT. Торрент взят с другого трекера (иначе слишком долго ждать полной отдачи фильма). А так раздающих некоторое количество уже естьpb.wtf



20-07-2013 15:45 Мимино Скачать торрент  

Шапку оформи согласно правилам. http://puu.sh/3Hqt1.pngpb.wtf



20-07-2013 16:15 Мимино Скачать торрент  

с названия в самом сообщение убери смайлик winkpb.wtf



    Дорогой пользователь! Огромная просьба, поблагодарите релизера, оцените раздачу и оставьте свои комментарий, если Вы скачали Мимино через торрент бесплатно! Внесите свою лепту в развитие PiratBit!
    Комментировать посты могут только пользователи прошедшие не сложную регистрацию
    Показать сообщения:    

    Мимино через торрент
    Скачать бесплатно Мимино
    Мимино скачать торрент
    Мимино смотреть онлайн
    Cкачать фильм Мимино бесплатно
    Мимино скачать торрент в хорошем качестве
    Мимино смотреть онлайн бесплатно в хорошем качестве


    Вы не можете начинать темы
    Вы не можете отвечать на сообщения
    Вы не можете редактировать свои сообщения
    Вы не можете удалять свои сообщения
    Вы не можете голосовать в опросах
    Вы не можете прикреплять файлы к сообщениям
    Вы можете скачивать файлы