Ссылка на приватное зеркало нашего сайта всего за 1$. Внимание количество ограничено!!!

2 сезон

iTunes

1 сезон

1

iTunes

iTunes

iTunes

1 сезон

RePack

30

ИГРА 18+

pack

ВАЖНО

!!Акция!!

Alien_RageХит недели

RePack

MK11
pack

Забери бонус

RePack

jed

!!Акция!!

Alien_Rage

RePack

fifa19

RePack

Assassins Creed: Odyssey

RePack

NEED FOR SPEED™ PAYBACK

4 сезон

9 сезон

Бесстыжие 9 сезон

Все сериалы

все сериалы на PB.wtf

RePack

FAR CRY 5
  

Улики / Evidence (Олатунде Осунсанми / Olatunde Osunsanmi) [ 2013 , США , триллер, ужасы , WEB-DLRip ] VO [lord666] pb.wtf

Улики через торрент pb.wtf

Размер: 1.37 GB | Добавлен: 7 лет 3 мес. назад | Торрент скачан:461 раз
Скачать  

21-07-2013 08:32 Улики Скачать торрент  

Улики / Evidence

«Собери ужас по фрагментам»

  • Год выпуска:2013
  • Страна:США
  • Жанр:триллер, ужасы
  • Продолжительность: 01:33:56
  • Перевод:Любительский (одноголосый) [lord666]

  • Субтитры: Нет
    • Режиссер:Олатунде Осунсанми / Olatunde Osunsanmi

  • В ролях:Стивен Мойер (Detective Reese), Рада Митчелл (Detective Burquez), Торри ДеВито (Leann), Нолан Фанк (Tyler Morris), Дейл Дикки (Katrina Fleishman), Гарри Дж. Ленникс (Ben), Кэйтлин Стэйси (Rachel), Амл Амин (Officer Jenson), Светлана Меткина (Vicki), Джон Хеймс Ньютон (Lead Cop), Алиша Ситон (Colleen Flynn), Верити Бранко (Olivia Spence)
    • Описание:
      В автобусе, направлявшемся в Лас-Вегас, совершено жестокое убийство. На месте преступления - ни одного уцелевшего. Только несколько трупов и хаотичный набор мобильных телефонов, карманных видеокамер и других устройств, оставшихся от потерпевших. Детектив, которому поручено расследование, с помощью сохранившихся записей пытается восстановить цепь загадочных событий, приведших к трагедии.

  • Рейтинг
    kinopoisk.ru: 6.093 (333)
    imdb.com: 5.00 (404)
    • Качество:WEB-DLRip
    • Формат:AVI
    • Видео кодек: XviD
    • Аудио кодек: AC3
    • Видео: XviD, 720x304 (2.35:1), 1881 kbps, 23,976 fps, 0,359 bpp
    • Аудио: AC3 / 2.0 / 48 kHz / 192 kbps / 16 bit

    Общее
    Полное имя : D:ТорентыEvidence.2013.Web-DLRip.XviD.avi
    Формат : AVI
    Формат/Информация : Audio Video Interleave
    Размер файла : 1,37 Гбайт
    Продолжительность : 1 ч. 33 м.
    Общий поток : 2083 Кбит/сек
    Программа кодирования : VirtualDubMod 1.5.10.2 (build 2540/release)
    Библиотека кодирования : VirtualDubMod build 2540/release

    Видео
    Идентификатор : 0
    Формат : MPEG-4 Visual
    Профиль формата : Advanced Simple@L5
    Параметр BVOP формата : 2
    Параметр QPel формата : Нет
    Параметр GMC формата : Без точки перехода
    Параметр матрицы формата : Default (H.263)
    Идентификатор кодека : XVID
    Идентификатор кодека/Подсказка : XviD
    Продолжительность : 1 ч. 33 м.
    Битрейт : 1882 Кбит/сек
    Ширина : 720 пикселей
    Высота : 304 пикселя
    Соотношение сторон : 2,35:1
    Частота кадров : 23,976 кадра/сек
    Цветовое пространство : YUV
    Субдискретизация насыщенности : 4:2:0
    Битовая глубина : 8 бит
    Тип развёртки : Прогрессивная
    Метод сжатия : С потерями
    Бит/(Пиксели*Кадры) : 0.359
    Размер потока : 1,23 Гбайт (90%)
    Библиотека кодирования : XviD 1.2.1 (UTC 2008-12-04)

    Аудио
    Идентификатор : 1
    Формат : AC-3
    Формат/Информация : Audio Coding 3
    Расширение режима : CM (complete main)
    Параметр Endianness формата : Big
    Идентификатор кодека : 2000
    Продолжительность : 1 ч. 33 м.
    Вид битрейта : Постоянный
    Битрейт : 192 Кбит/сек
    Каналы : 2 канала
    Расположение каналов : Front: L R
    Частота : 48,0 КГц
    Битовая глубина : 16 бит
    Метод сжатия : С потерями
    Размер потока : 129 Мбайт (9%)
    Выравнивание : Разделение по промежуткам
    Продолжительность промежутка : 42 мс. (1,00 видеокадр)
    Время предзагрузки промежутка : 500 мс.

    © Оформление&Постер by Vetalpb.wtf



  • Скачать Улики через торрент http://i3.imageban.ru/out/2013/07/21/9ad0be5d45acf137c224b65d99d5e9aa.png Скачать фильм Улики через торрент бесплантно в хорошем качестве Описание:В автобусе, направлявшемся в Лас-Вегас, совершено жестокое убийство. На месте преступления - ни одного уцелевшего. Только ... 9.8 10 22
    Info! Золотая раздача, скачанное не засчитывается.
    Торрент: Зарегистрирован [2013-07-21 08:32] · скачан: 461 раз
    Статус: √ проверено
    Размер: 1.37 GB
    Как cкачать? Как скачать Улики через торрент | qTorrent

    % Раздел Тема Автор DL S | L
    Фильмы [HD 720p, 1080p] (Хороший звук DUB, MVO) [ 12.57 GB ] Тело как улика / Body Of Evidence [1993 BDRip 1080p by msltel] 2 x MVO 3 x DVO AVO msltel Скачать
    1 | 0
    Фильмы [HD 720p, 1080p] (Хороший звук DUB, MVO) [ 4.85 GB ] Тело как улика / Body Of Evidence [1993 BDRip 720p by msltel] 2 x MVO 3 x DVO AVO msltel Скачать
    1 | 0
    Фильмы (Blu-ray, BD-Remux, HDDVD) [ 18.23 GB ] Улики / Evidence [2013 BDRemux ()[] Ворон Скачать
    1 | 0
    Фильмы 2012 [ 2.18 GB ] Улики / Evidence [2012 BDRip-AVC] potroks Скачать
    1 | 0
    Фильмы 2013 [DVDrip, WEB-DLRip, HDrip] [ 1.44 GB ] Улики / Evidence [2013 BDRip] DUB + Original + Subs Liloo_Foofyga Скачать
    1 | 0
    Фильмы (DVD фильмы) [ 6.31 GB ] Улики / Evidence [2013 DVD9] R5 voovaz Скачать
    1 | 0
    Фильмы 2013 [DVDrip, WEB-DLRip, HDrip] [ 1.37 GB ] Улики / Evidence [2013 HDRip ] Seedtank Скачать
    1 | 0

    28-11-2019 20:33  

    Отключить всю рекламу на сайте

    21-07-2013 10:34 Улики Скачать торрент  

    Кто нибудь смотрел уже???pb.wtf



    10-09-2013 15:16 Улики Скачать торрент  

    нормальный фильмец, на разокpb.wtf



      Дорогой пользователь! Огромная просьба, поблагодарите релизера, оцените раздачу и оставьте свои комментарий, если Вы скачали Улики через торрент бесплатно! Внесите свою лепту в развитие PiratBit!
      Комментировать посты могут только пользователи прошедшие не сложную регистрацию
      Показать сообщения:    

      Улики через торрент
      Скачать бесплатно Улики
      Улики скачать торрент
      Улики смотреть онлайн
      Cкачать фильм Улики бесплатно
      Улики скачать торрент в хорошем качестве
      Улики смотреть онлайн бесплатно в хорошем качестве


      Вы не можете начинать темы
      Вы не можете отвечать на сообщения
      Вы не можете редактировать свои сообщения
      Вы не можете удалять свои сообщения
      Вы не можете голосовать в опросах
      Вы не можете прикреплять файлы к сообщениям
      Вы можете скачивать файлы