1 сезон

3 сезон

iTunes

1

iTunes

MVO

iTunes

13

1 сезон

RePack

30

Deluxe

pack

Лицензия

ВАЖНО

ИГРА 18+

pack

RePack

MK11

RePack

jed

RePack

fifa19

RePack

RDR2

RePack

NEED FOR SPEED™ PAYBACK

4 сезон

9 сезон

Бесстыжие 9 сезон

Все сериалы

все сериалы на PB.wtf

RePack

FAR CRY 5

Anonymous, доброй ночи, мы катастрофически не успеваем собрать деньги на оплату серверов, помогите нам пожалуйста 5,10,15р., для нас важна любая помощь . В качестве благодарности мы отключим Вам всю рекламу на сайте (укажите свой ник в строку Ваше имя)!

×
  
Magnet ссылка

Миллион для чайников / The Brass Teapot (Рамаа Мосли / Ramaa Mosley) [2012, фэнтези, триллер, комедия, DVD5] R5 pb.wtf

Миллион для чайников через торрент pb.wtf

Размер: 3.8 GB | Добавлен: 8 лет назад | Торрент скачан:137 раз
Скачать  

21-07-2013 09:14 Миллион для чайников Скачать торрент  


Миллион для чайников / The Brass Teapot
«Всё, что не убьёт тебя, сделает богаче»
Страна: США
Студия: Atlantic Pictures (II), Laundry Films, Northern Lights Films, Northern Lights Films and Media Ventures, Queen Nefertari Productions, Sakonnet Capital Partners, Union Entertainment Group (II)
Жанр: фэнтези, триллер, комедия
Год выпуска: 2012
Мировая премьера: 8 сентября 2012
Российская премьера: 4 апреля 2013
Дата выхода DVD: 27 июня 2013
Продолжительность: 01:37:18
Перевод: Профессиональный (многоголосый закадровый) [Лицензия]
Cубтитры: украинские
Оригинальная аудиодорожка: нет
Режиссер: Рамаа Мосли / Ramaa Mosley
В ролях: Джуно Темпл, Майкл Ангарано, Алексис Бледел, Билли Магнуссен, Алиа Шокат, Бобби Мойнихэн мл., Стив Парк,Бен Раппапорт, Люси Уолтерс, Джек МакБрайер...
Описание: Признайтесь, каждому бы хотелось иметь волшебный чайник под кроватью, который выдает по первому требованию наличные?!
Но кто знает, через что должен пройти миллионер? Богатые тоже плачут, ведь чайник производит деньги, как только кто-то из окружающих чувствует боль.
Как далеко готовы зайти ради денег молодожены Джон и Эллис в погоне за богатством?

Бонусы: нет

Релиз группы:
Качество: DVD5 R5
Формат: DVD-Video
Видео кодек: MPEG2
Аудио кодек: AC3
Видео: PAL 16:9 (720x576(0.511)) MPEG Video, 25,000 кадр/сек, 5296 Кбит/сек
Аудио: Russian (Dolby AC3, 6 ch) 448 Кбит/сек, 48,0 КГц



Title: Million.dlya.chaynikov.2012.DVD5
Size: 3.80 Gb ( 3 982 664,00 KBytes ) - DVD-5
Enabled regions: 1, 2, 3, 4, 5, 6, 7, 8

VTS_01 :
Play Length: 01:37:18
Video: PAL 16:9 (720x576) VBR, Auto Letterboxed
Audio:
Russian (Dolby AC3, 6 ch)
Subtitles:
Ukrainian

VTS_02 :
Play Length: 00:00:08
Video: PAL 4:3 (720x576) VBR

VTS_03 :
Play Length: 00:00:21
Video: PAL 16:9 (720x576) VBR, Auto Letterboxed
Audio:
English (Dolby AC3, 2 ch)

* Menus Information *

VIDEO_TS Menu
Video:
NTSC 4:3 (720x480) VBR
Auto Pan&Scan, Auto Letterboxed
Russian Language Unit :
Title Menu

VTS_01 Menu
Video:
PAL 16:9 (720x576) VBR
Auto Letterboxed
Audio:
Not specified (Dolby AC3, 2 ch)
Russian Language Unit :
Root Menu
Subpicture Menu
Chapter (PTT) Menu

VTS_02 Menu
Video:
NTSC 4:3 (720x480) VBR
Auto Pan&Scan, Auto Letterboxed
Language Unit :
Subpicture Menu
Angle menu
Language Unit :

Language Unit :
Subpicture Menu
Chapter (PTT) Menu
Language Unit :

Language Unit :
Subpicture Menu
Chapter (PTT) Menu

VTS_03 Menu
Video:
NTSC 4:3 (720x480) VBR
Auto Pan&Scan, Auto Letterboxed
Language Unit :
Subpicture Menu
Angle menu
Language Unit :
Subpicture Menu
Angle menu
Language Unit :
Subpicture Menu
Angle menu
Language Unit :
Subpicture Menu
Angle menu
Language Unit :
Subpicture Menu
Angle menu
Общее
Полное имя : M:Новинки 2013Million.dlya.chaynikov.2012.DVD5VIDEO_TSVTS_01_1.VOB
Формат : MPEG-PS
Размер файла : 1024 Мбайт
Продолжительность : 24 м.
Режим общего битрейта : Переменный
Общий поток : 5861 Кбит/сек

Видео
Идентификатор : 224 (0xE0)
Формат : MPEG Video
Версия формата : Version 2
Профиль формата : Main@Main
Параметр BVOP формата : Да
Параметр матрицы формата : Выборочная
Параметр GOP формата : M=3, N=15
Продолжительность : 24 м.
Вид битрейта : Переменный
Битрейт : 5296 Кбит/сек
Максимальный битрейт : 8000 Кбит/сек
Ширина : 720 пикселей
Высота : 576 пикселей
Соотношение сторон : 16:9
Частота кадров : 25,000 кадров/сек
Стандарт вещания : PAL
Цветовое пространство : YUV
Субдискретизация насыщенности : 4:2:0
Битовая глубина : 8 бит
Тип развёртки : Чересстрочная
Порядок развёртки : Верхнее поле первое
Метод сжатия : С потерями
Бит/(Пиксели*Кадры) : 0.511
TimeCode_FirstFrame : 00:00:00:00
TimeCode_Source : Group of pictures header
Размер потока : 925 Мбайт (90%)

Аудио
Идентификатор : 189 (0xBD)-128 (0x80)
Формат : AC-3
Формат/Информация : Audio Coding 3
Расширение режима : CM (complete main)
Параметр Endianness формата : Big
Режим смешивания : DVD-Video
Продолжительность : 24 м.
Вид битрейта : Постоянный
Битрейт : 448 Кбит/сек
Каналы : 6 каналов
Расположение каналов : Front: L C R, Side: L R, LFE
Частота : 48,0 КГц
Битовая глубина : 16 бит
Метод сжатия : С потерями
Размер потока : 78,2 Мбайт (8%)

Текст
Идентификатор : 189 (0xBD)-32 (0x20)
Формат : RLE
Формат/Информация : Run-length encoding
Режим смешивания : DVD-Video










pb.wtf



Скачать Миллион для чайников через торрент http://s004.radikal.ru/i206/1307/53/e0abda1947c1.jpg Скачать фильм Миллион для чайников через торрент бесплантно в хорошем качестве Описание: Признайтесь, каждому бы хотелось иметь волшебный чайник под кроватью, который выдает по первому требованию наличные?!Но кто ... 8.4 10 7
Info! Золотая раздача, скачанное не засчитывается.
Торрент: Зарегистрирован [2013-07-21 09:14] · скачан: 137 раз
Статус: √ проверено
Размер: 3.8 GB
Как cкачать? Как скачать Миллион для чайников через торрент | UTorrent

28-11-2019 20:33  

Отключить всю рекламу на сайте

21-07-2013 14:53 Миллион для чайников Скачать торрент  

Пойдет кинчик, заставляет подумать ... )pb.wtf



    Дорогой пользователь! Огромная просьба, поблагодарите релизера, оцените раздачу и оставьте свои комментарий, если Вы скачали Миллион для чайников через торрент бесплатно! Внесите свою лепту в развитие PiratBit!
    Комментировать посты могут только пользователи прошедшие не сложную регистрацию
    Показать сообщения:    

    Миллион для чайников через торрент
    Скачать бесплатно Миллион для чайников
    Миллион для чайников скачать торрент
    Миллион для чайников смотреть онлайн
    Cкачать фильм Миллион для чайников бесплатно
    Миллион для чайников скачать торрент в хорошем качестве
    Миллион для чайников смотреть онлайн бесплатно в хорошем качестве


    Вы не можете начинать темы
    Вы не можете отвечать на сообщения
    Вы не можете редактировать свои сообщения
    Вы не можете удалять свои сообщения
    Вы не можете голосовать в опросах
    Вы не можете прикреплять файлы к сообщениям
    Вы можете скачивать файлы