Ссылка на приватное зеркало нашего сайта всего за 1$. Внимание количество ограничено!!!

2 сезон

iTunes

1 сезон

1

iTunes

iTunes

iTunes

1 сезон

RePack

30

ИГРА 18+

pack

ВАЖНО

!!Акция!!

Alien_RageХит недели

RePack

MK11
pack

Забери бонус

RePack

jed

!!Акция!!

Alien_Rage

RePack

fifa19

RePack

Assassins Creed: Odyssey

RePack

NEED FOR SPEED™ PAYBACK

4 сезон

9 сезон

Бесстыжие 9 сезон

Все сериалы

все сериалы на PB.wtf

RePack

FAR CRY 5
  

Корона и дракон / The Crown and the Dragon (Энн К. Блэк / Anne K. Black) [ 2013 , США , фэнтези, приключения , HDRip ] VO [Vano] pb.wtf

Корона и дракон через торрент pb.wtf

Размер: 1.37 GB | Добавлен: 7 лет 3 мес. назад | Торрент скачан:588 раз
Скачать  

22-07-2013 15:41 Корона и дракон Скачать торрент  

Корона и дракон / The Crown and the Dragon


  • Год выпуска:2013
  • Страна:США
  • Жанр:фэнтези, приключения
  • Продолжительность: 01:31:35
  • Перевод:Любительский (одноголосый)

  • Субтитры: Нет
    • Режиссер:Энн К. Блэк / Anne K. Black

  • В ролях:Эми Де Брюн (Ellen Barethon), Кайнен Гриффин (Visiting Nobleman), David Haydn (Aedin), Ава Хант (Leodrine), Грант Хатчинсон (Scribe), Tom Murphy (Clooney), Киаран О’Грэйди (Ranulf), Никки Поснер (рассказчик), Видал Санчо (Strabus), Тим Трелоа (Corvus)
    • Описание:
      Через истерзанную войной страну, страдающюю от жестокого дракона, молодая дворянка сопровождает свою тетю, чтобы доставить древнюю реликвию на секретную коронацию законного короля.

  • Рейтинг
    imdb.com: 5.50 (40)
    • Качество:HDRip
    • Формат:AVI
    • Видео кодек: XviD
    • Аудио кодек: AC3
    • Видео: XviD, 720x400 (16:9), 1678 kbps, 23,976 fps, 0,243 bpp
    • Аудио: AC3 / 5.1 / 48 kHz / 448 kbps / 16 bit

    General
    Complete name : D:ТорентыThe.Crown.and.the.Dragon.2013.L1.HDRip.1400MB.avi
    Format : AVI
    Format/Info : Audio Video Interleave
    File size : 1.37 GiB
    Duration : 1h 31mn
    Overall bit rate : 2 136 Kbps
    Writing application : VirtualDubMod 1.5.10.2 (build 2540/release)
    Writing library : VirtualDubMod build 2540/release

    Video
    ID : 0
    Format : MPEG-4 Visual
    Format profile : Advanced Simple@L5
    Format settings, BVOP : 2
    Format settings, QPel : No
    Format settings, GMC : No warppoints
    Format settings, Matrix : Default (MPEG)
    Codec ID : XVID
    Codec ID/Hint : XviD
    Duration : 1h 31mn
    Bit rate : 1 679 Kbps
    Width : 720 pixels
    Height : 400 pixels
    Display aspect ratio : 16:9
    Frame rate : 23.976 fps
    Color space : YUV
    Chroma subsampling : 4:2:0
    Bit depth : 8 bits
    Scan type : Progressive
    Compression mode : Lossy
    Bits/(Pixel*Frame) : 0.243
    Stream size : 1.07 GiB (79%)
    Writing library : XviD 1.2.1 (UTC 2008-12-04)

    Audio
    ID : 1
    Format : AC-3
    Format/Info : Audio Coding 3
    Mode extension : CM (complete main)
    Codec ID : 2000
    Duration : 1h 31mn
    Bit rate mode : Constant
    Bit rate : 448 Kbps
    Channel(s) : 6 channels
    Channel positions : Front: L C R, Side: L R, LFE
    Sampling rate : 48.0 KHz
    Bit depth : 16 bits
    Compression mode : Lossy
    Stream size : 294 MiB (21%)
    Alignment : Split accross interleaves
    Interleave, duration : 42 ms (1.00 video frame)
    Interleave, preload duration : 500 ms



    © Оформление by Vetalpb.wtf



  • Скачать Корона и дракон через торрент http://i6.imageban.ru/out/2013/07/22/13c31d88a253c706cd266bf207e10eac.png Скачать фильм Корона и дракон через торрент бесплантно в хорошем качестве Описание:Через истерзанную войной страну, страдающюю от жестокого дракона, молодая дворянка сопровождает свою тетю, чтобы доставить древнюю ... 9.5 10 31
    Info! Золотая раздача, скачанное не засчитывается.
    Торрент: Зарегистрирован [2013-07-22 15:41] · скачан: 588 раз
    Статус: √ проверено
    Размер: 1.37 GB
    Как cкачать? Как скачать Корона и дракон через торрент | qTorrent

    % Раздел Тема Автор DL S | L
    Фильмы 2013 [DVDrip, WEB-DLRip, HDrip] [ 1.46 GB ] Корона и дракон / The Crown and the Dragon [2013 НDRip] diletant Скачать
    1 | 0
    Фильмы (DVD фильмы) [ 4.22 GB ] Корона и дракон / The Crown and the Dragon [2013 DVD5] R5 voovaz Скачать
    1 | 0
    Фильмы (Blu-ray, BD-Remux, HDDVD) [ 16.15 GB ] Корона и дракон / The Crown and the Dragon [2013 BDRemux]MVO+VO| лицензия Ворон Скачать
    1 | 0
    Фильмы 2013 (Звук TS, Cam, VO, DVO) [ 1.7 GB ] Корона и дракон / The Crown and the Dragon [2013 HDRip-AVC] VO vamo Скачать
    1 | 0
    Фильмы 2013 (Звук TS, Cam, VO, DVO) [ 2.05 GB ] Корона и дракон / The Crown and the Dragon [ 2013 HDRip VO ] МАКС1 Скачать
    1 | 0

    28-11-2019 20:33  

    Отключить всю рекламу на сайте

    22-07-2013 17:51 Корона и дракон Скачать торрент  

    Цитата:

    дворянка сопровождает свою тетю, чтобы доставить древнюю реликвию

    Толи речь идет о черепахе Тортилле и её племянице, толи тётя особо ценная реликтовая мумия без которой король в законе ну никак не будет коронован ибо секретный сходняк будет не полный.pb.wtf



    22-07-2013 18:23 Корона и дракон Скачать торрент  

    Budunarij писал(а):

    Цитата:

    дворянка сопровождает свою тетю, чтобы доставить древнюю реликвию

    Толи речь идет о черепахе Тортилле и её племянице, толи тётя особо ценная реликтовая мумия без которой король в законе ну никак не будет коронован ибо секретный сходняк будет не полный.

    Я думаю. что не надо так строго судить сказку. pb.wtf



    22-07-2013 22:16 Корона и дракон Скачать торрент  

    [sub]pb.wtf



    23-07-2013 08:53 Корона и дракон Скачать торрент  

    Скорее всего второе, но не настолько сурово:) надо будет на досуге все же попробовать посмотреть.pb.wtf



    23-07-2013 09:52 Корона и дракон Скачать торрент  

    Вообще комментирую крайне редко, но тут уж "не вынесла душа поэта". Мало того, что описание фильма до безобразия не совпадает с собственно сюжетом, а сам сюжет избит до посинения. Полно графических, логических и сюжетных не стыковок, графика из прошлого тысячелетия, а актерский состав 3-й или 4-й очереди. Я люблю, просто обожаю фэнтези, да и сам немного пишу... но "это" ... это просто таки антиреклама жанра.pb.wtf



    24-07-2013 08:46 Корона и дракон Скачать торрент  

    savvx писал(а):

    Вообще комментирую крайне редко, но тут уж "не вынесла душа поэта". Мало того, что описание фильма до безобразия не совпадает с собственно сюжетом, а сам сюжет избит до посинения. Полно графических, логических и сюжетных не стыковок, графика из прошлого тысячелетия, а актерский состав 3-й или 4-й очереди. Я люблю, просто обожаю фэнтези, да и сам немного пишу... но "это" ... это просто таки антиреклама жанра.

    Мне понравилось как они шли,
    у мужика сумка то есть следующий кадр уже нет, с мечом та же беда КОШМАР!!!!!pb.wtf



      Дорогой пользователь! Огромная просьба, поблагодарите релизера, оцените раздачу и оставьте свои комментарий, если Вы скачали Корона и дракон через торрент бесплатно! Внесите свою лепту в развитие PiratBit!
      Комментировать посты могут только пользователи прошедшие не сложную регистрацию
      Показать сообщения:    

      Корона и дракон через торрент
      Скачать бесплатно Корона и дракон
      Корона и дракон скачать торрент
      Корона и дракон смотреть онлайн
      Cкачать фильм Корона и дракон бесплатно
      Корона и дракон скачать торрент в хорошем качестве
      Корона и дракон смотреть онлайн бесплатно в хорошем качестве


      Вы не можете начинать темы
      Вы не можете отвечать на сообщения
      Вы не можете редактировать свои сообщения
      Вы не можете удалять свои сообщения
      Вы не можете голосовать в опросах
      Вы не можете прикреплять файлы к сообщениям
      Вы можете скачивать файлы