Ссылка на приватное зеркало всего за 1$. Внимание количество ограничено!!!

iTunes

iTunes

iTunes

1

iTunes

iTunes

iTunes

iTunes

iTunes

30
pack

Новость дня

ВАЖНО

!!Акция!!

Alien_RageХит недели

RePack

Resident Evil 21

ИГРА 18+

pack

RePack

jed

!!Акция!!

Alien_Rage

RePack

fifa19

RePack

Assassins Creed: Odyssey

RePack

NEED FOR SPEED™ PAYBACK

4 сезон

9 сезон

Бесстыжие 9 сезон

Все сериалы

все сериалы на PB.wtf

RePack

FAR CRY 5
  

Пираты "Черной Лагуны" / Black Lagoon (Катабути Сунао/ Katabushi Sunao) [2006 г., аниме, боевик, криминал, BDRip 720p, Многоголосый, закадровый "MC Entertainment" ] pb.wtf

Пираты "Черной Лагуны" через торрент pb.wtf

Раздают: 2 [ 0 KB/s ]
Размер: 14.7 GB | Добавлен: 6 лет 10 мес. назад | Торрент скачан:120 раз
Скачать  

25-07-2013 23:42 Пираты "Черной Лагуны" Скачать торрент  

Год выпуска: 2006
Страна: Япония
Жанр: аниме, боевик, криминал,
Продолжительность: (24 эп.) 25 мин.
Перевод: Многоголосый, закадровый "MC Entertainment"
Субтитры: Отсутствуют

Режиссер: Катабути Сунао/ Katabushi Sunao
Продюссер: Сатоси Фудзий/ Satoshi Fujii
Сценарий: Рэй Хироэ/ Rei Hiroe, Катабути Сунао/ Katabushi Sunao

Премьера в мире: 8 апреля 2006
Описание: Простой японский служащий Рокуро Окадзима отправляется в командировку в юго-восточную Азию: ему нужно доставить очень важный диск. Вся его жизнь переворачивается в тот момент, когда на корабль нападают пираты и берут Рокуро в заложники. Спасая лицо, компания решает избавиться от диска вместе со служащим. Чтобы выжить, Рок объединяется с пиратами – и теперь он сотрудник «Чёрной лагуны»! Вместе они сражаются с наемными убийцами, вертолетами и кораблями, а потом отправляются искать загадочную подводную лодку нацистской Германии.
Качество: BDRip 720p

Формат: MKV

Видео кодек: H.264

Аудио кодек: AC3

Видео: 1280x720 (16:9), 23.976 fps, ~2200 Kbps, x264

Аудио#1: AC3, 48 kHz, 5.1 ch , 384 Kbps "MC Entertainment"

Аудио#2: AC3, 48 kHz, 2 ch , 384 Kbps JAP

Аудио#3: AAC, 44,1 kHz, 2 ch, 192 Kbps AZAZELo (Отдельно)
01. The Black Lagoon
02. Mangrove Heaven
03. Ring-Ding Ship Chase
04. Die Ruckkehr des Adlers
05. Eagle Hunting and Hunting Eagles
06. Moonlit Hunting Grounds
07. Calm Down,Two Men
08. Rasta Blasta
09. Maid to Kill
10. The Unstoppable Chambermaid
11. Lock'n Load Revolution
12. Guerrillas in the Jungle
01 (13). The Vampire Twins Comen
02 (14). Bloodsport Fairytale
03 (15). Swan Song at Dawn
04 (16). Green back Jane
05 (17). The Roanapur Freakshow Circus
06 (18). Mr Benny's Good Fortune
07 (19). Fujiyama Gangst a Paradise
08 (20). The Succession
09 (21). Two Father's Little Soldier Girls
10 (22). The Dark Tower
11 (23). Snow White's Payback
12 (24). The Gunslingers
Уникальный идентификатор : 226868248561887945896156952403849240118 (0xAAAD3C3ED2AF02CEAD3A2D5D1FB3DE36)
Полное имя : D:киноB.L Black Lagoon 01 [BDRip 720p x264 AC3].mkv
Формат : Matroska
Версия формата : Version 2
Размер файла : 469 Мбайт
Продолжительность : 23 м.
Общий поток : 2797 Кбит/сек
Дата кодирования : UTC 2013-07-25 01:07:34
Программа кодирования : mkvmerge v5.7.0 ('The Whirlwind') built on Jul 8 2012 20:08:51
Библиотека кодирования : libebml v1.2.3 + libmatroska v1.3.0

Видео
Идентификатор : 1
Формат : AVC
Формат/Информация : Advanced Video Codec
Профиль формата : High 10@L4.1
Параметр CABAC формата : Да
Параметр ReFrames формата : 9 кадров
Режим смешивания : Header stripping
Идентификатор кодека : V_MPEG4/ISO/AVC
Продолжительность : 23 м.
Битрейт : 2012 Кбит/сек
Ширина : 1280 пикселей
Высота : 720 пикселей
Соотношение сторон : 16:9
Режим частоты кадров : Постоянный
Частота кадров : 23,976 кадра/сек
Цветовое пространство : YUV
Субдискретизация насыщенности : 4:2:0
Битовая глубина : 10 бит
Тип развёртки : Прогрессивная
Бит/(Пиксели*Кадры) : 0.091
Размер потока : 331 Мбайт (71%)
Библиотека кодирования : x264 core 122 r2184 5c85e0a
Настройки программы : cabac=1 / ref=9 / deblock=1:-2:-2 / analyse=0x3:0x133 / me=umh / subme=9 / psy=1 / psy_rd=0.90:0.00 / mixed_ref=0 / me_range=24 / chroma_me=1 / trellis=2 / 8x8dct=1 / cqm=0 / deadzone=21,11 / fast_pskip=0 / chroma_qp_offset=-2 / threads=12 / sliced_threads=0 / nr=0 / decimate=0 / interlaced=0 / bluray_compat=0 / constrained_intra=0 / bframes=10 / b_pyramid=2 / b_adapt=2 / b_bias=0 / direct=3 / weightb=1 / open_gop=0 / weightp=2 / keyint=250 / keyint_min=23 / scenecut=40 / intra_refresh=0 / rc_lookahead=60 / rc=2pass / mbtree=1 / bitrate=2012 / ratetol=1.0 / qcomp=0.65 / qpmin=9 / qpmax=38 / qpstep=4 / cplxblur=20.0 / qblur=0.5 / ip_ratio=1.40 / aq=1:0.90
Язык : English
Default : Да
Forced : Нет

Аудио #1
Идентификатор : 2
Формат : AC-3
Формат/Информация : Audio Coding 3
Расширение режима : CM (complete main)
Параметр Endianness формата : Big
Режим смешивания : Header stripping
Идентификатор кодека : A_AC3
Продолжительность : 23 м.
Вид битрейта : Постоянный
Битрейт : 384 Кбит/сек
Каналы : 6 каналов
Расположение каналов : Front: L C R, Side: L R, LFE
Частота : 48,0 КГц
Битовая глубина : 16 бит
Метод сжатия : С потерями
Размер потока : 64,4 Мбайт (14%)
Заголовок : MC Entertainment
Язык : Russian
Default : Да
Forced : Да

Аудио #2
Идентификатор : 3
Формат : AC-3
Формат/Информация : Audio Coding 3
Расширение режима : CM (complete main)
Параметр Endianness формата : Big
Режим смешивания : Header stripping
Идентификатор кодека : A_AC3
Продолжительность : 23 м.
Вид битрейта : Постоянный
Битрейт : 384 Кбит/сек
Каналы : 2 канала
Расположение каналов : Front: L R
Частота : 48,0 КГц
Битовая глубина : 16 бит
Метод сжатия : С потерями
Размер потока : 64,4 Мбайт (14%)
Язык : Japanese
Default : Нет
Forced : Нет
pb.wtf



Скачать Пираты "Черной Лагуны" через торрент http://pic.kartinco.top/images/3/wnxuty6bva.png Скачать фильм Пираты "Черной Лагуны" через торрент бесплантно в хорошем качестве Описание: Простой японский служащий Рокуро Окадзима отправляется в командировку в юго-восточную Азию: ему нужно доставить очень важный ... 9.3 10 15
Info! Золотая раздача, скачанное не засчитывается.
Торрент: Зарегистрирован [2013-07-25 23:42] · скачан: 120 раз
Статус: √ проверено
Размер: 14.7 GB
Как cкачать? Как скачать Пираты "Черной Лагуны" через торрент | qTorrent

28-11-2019 20:33  

Отключить всю рекламу на сайте

26-07-2013 13:28 Пираты "Черной Лагуны" Скачать торрент  

Офигели? Пиратов темной воды превратили в кавайное аниме? Руки прочь от моего детства!!!pb.wtf



26-07-2013 15:02 Пираты "Черной Лагуны" Скачать торрент  

Shubba писал(а):

Офигели? Пиратов темной воды превратили в кавайное аниме? Руки прочь от моего детства!!!

аниме 2006 года(= pb.wtf



26-07-2013 15:26 Пираты "Черной Лагуны" Скачать торрент  

Shubba писал(а):

Офигели? Пиратов темной воды превратили в кавайное аниме? Руки прочь от моего детства!!!

А причем здесь "Пираты Темной Воды" и данное аниме? Это по определению две разных вещи. Да и потом, здесь нет абсолютно никакого кавая.pb.wtf



08-11-2013 07:05 Пираты "Черной Лагуны" Скачать торрент  

мульт - СУПЕР
беда, только с качеством изображения. "квадраты", да цветопередача храмаетpb.wtf



02-01-2014 17:52 Пираты "Черной Лагуны" Скачать торрент  

Раздаёт 2 человека, а сраную наруту пол тысячи, независимо от того, первая это серия или последняя.pb.wtf



25-01-2014 20:13 Пираты "Черной Лагуны" Скачать торрент  

MagicSpb писал(а):

мульт - СУПЕР
беда, только с качеством изображения. "квадраты", да цветопередача храмает

Неужели с таким качеством есть подобные косяки? worrypb.wtf



14-04-2020 12:03 Пираты "Черной Лагуны" Скачать торрент  

раздайте пожалуйста!pb.wtf



    Дорогой пользователь! Огромная просьба, поблагодарите релизера, оцените раздачу и оставьте свои комментарий, если Вы скачали Пираты "Черной Лагуны" через торрент бесплатно! Внесите свою лепту в развитие PiratBit!
    Комментировать посты могут только пользователи прошедшие не сложную регистрацию
    Показать сообщения:    

    Пираты "Черной Лагуны" через торрент
    Скачать бесплатно Пираты "Черной Лагуны"
    Пираты "Черной Лагуны" скачать торрент
    Пираты "Черной Лагуны" смотреть онлайн
    Cкачать фильм Пираты "Черной Лагуны" бесплатно
    Пираты "Черной Лагуны" скачать торрент в хорошем качестве
    Пираты "Черной Лагуны" смотреть онлайн бесплатно в хорошем качестве


    Вы не можете начинать темы
    Вы не можете отвечать на сообщения
    Вы не можете редактировать свои сообщения
    Вы не можете удалять свои сообщения
    Вы не можете голосовать в опросах
    Вы не можете прикреплять файлы к сообщениям
    Вы можете скачивать файлы