MEGA SALE -50% FORZA HORIZON 4 ULTIMATE+ВСЕ DLC+ОНЛАЙН всего за 599р. 299 руб. (супер цена). Внимание количество ограничено!!!

iTunes

1+1

iTunes

мы

iTunes

1

iTunes

Чернобыль

iTunes

Ральф против интернета

Лицензия

ПШазам

Лицензия

Игра престолов

Лицензия

30
pack

ВАЖНО

!!Акция!!

Alien_RageХит недели

RePack

Resident Evil 21

ИГРА 18+

pack

RePack

Metro:Exodus

!!Акция!!

Alien_Rage

RePack

fifa19

RePack

Assassins Creed: Odyssey

RePack

NEED FOR SPEED™ PAYBACK

3 сезон

9 сезон

Бесстыжие 9 сезон

Все сериалы

все сериалы на PB.wtf

RePack

FAR CRY 5
Ребята, катастрофически не хватает 7730р. для оплаты серверов за АВГУСТ (всвязи с блокировками трафик упал в 3 раза), 1-2р., выручайте.
  

Пророк / Un prophete (Жак Одиар) [2009, драма, криминал, HDRip, Дубляж] pb.wtf

Пророк через торрент pb.wtf

Размер: 2.06 GB | Добавлен: 6 лет 1 мес. назад | Торрент скачан:148 раз
Скачать  

26-07-2013 09:21 Пророк Скачать торрент  

Пророк / Un prophete
«Ему 19. Против него весь мир. Но Малик готов его завоевать.»

Год выпуска: 2009
Страна: Франция , Италия
Жанр: драма, криминал
Продолжительность: 02:35:04
Перевод: Профессиональный (дублированный)

Режиссер: Жак Одиар
Сценарий: Тома Бидеген, Жак Одиар, АбДель Рауф Дафри, ...
Продюсер: Лоранн Бурашо, Мартин Кассинелли, Паскаль Кочето, ...
Бюджет: $13 000 000
Премьера (мир): 16 мая 2009, ...
Премьера (РФ): 8 октября 2009, «Вольга»
Релиз на DVD: 10 декабря 2009, «Вольга», ...
В ролях: Тахар Рахим / Tahar Rahim (Malik El Djebena), Нильс Ареструп / Niels Arestrup (Cesar Luciani), Адель Беншериф / Adel Bencherif (Ryad), Реда Катеб / Reda Kateb (Jordi), Хайсем Якуби / Hichem Yacoubi (Reyeb), Жан-Филипп Риччи / Jean-Philippe Ricci (Vettori), Жиль Коэн / Gilles Cohen (Prof), Пьер Леччия / Pierre Leccia (Sampierro)


Описание: Приговоренный к шести годам тюрьмы, Малик Эль Джебена кажется на фоне других заключенных самым «зеленым» и самым уязвимым. Ему 19 лет. Он не умеет ни писать, ни читать. За стенами тюрьмы у него нет близких. Все меняется, когда Лучано, лидер авторитетной банды корсиканцев, решает поручить Малику ряд опасных и рискованных миссий… Выполнение любой из этих «миссий» под прессингом корсиканцев могло бы сломить кого угодно, но не его. Каждое задание закаляет Малика. Он быстро учится жизни в новом для себя мире. Завоевывает доверие корсиканцев и мусульман. И вскоре начинает вынашивать собственные дерзкие планы…



Качество: HDRip
Формат: AVI
Видео кодек: XviD
Аудио кодек: AC3
Видео: 720x384 (1.875:1), 24.000 fps, XviD, 1 502 Kbps
Аудио: Аудио #1: AC3, 384 Kbps, 48.0 KHz, 6 ch

Код:

General
Complete name                    : Prorok.avi
Format                           : AVI
Format/Info                      : Audio Video Interleave
Format profile                   : OpenDML
File size                        : 2.06 GiB
Duration                         : 2h 35mn
Overall bit rate                 : 1 898 Kbps
Writing application              : VirtualDubMod 1.5.10.2 (build 2540/release)
Writing library                  : VirtualDubMod build 2540/release

Video
ID                               : 0
Format                           : MPEG-4 Visual
Format profile                   : Advanced Simple@L5
Format settings, BVOP            : Yes
Format settings, QPel            : Yes
Format settings, GMC             : 3 warppoints
Format settings, Matrix          : Default (H.263)
Codec ID                         : XVID
Codec ID/Hint                    : XviD
Duration                         : 2h 35mn
Bit rate                         : 1 502 Kbps
Width                            : 720 pixels
Height                           : 384 pixels
Display aspect ratio             : 1.875
Frame rate                       : 24.000 fps
Color space                      : YUV
Chroma subsampling               : 4:2:0
Bit depth                        : 8 bits
Scan type                        : Progressive
Bits/(Pixel*Frame)               : 0.226
Stream size                      : 1.63 GiB (79%)
Writing library                  : XviD 1.2.1 (UTC 2008-12-04)

Audio
ID                               : 1
Format                           : AC-3
Format/Info                      : Audio Coding 3
Mode extension                   : CM (complete main)
Codec ID                         : 2000
Duration                         : 2h 35mn
Bit rate mode                    : Constant
Bit rate                         : 384 Kbps
Channel(s)                       : 6 channels
Channel positions                : Front: L C R, Side: L R, LFE
Sampling rate                    : 48.0 KHz
Bit depth                        : 16 bits
Stream size                      : 426 MiB (20%)
Alignment                        : Split accross interleaves
Interleave, duration             : 42 ms (1.00 video frame)
Interleave, preload duration     : 500 ms


pb.wtf



Скачать Пророк через торрент http://pic.kartinco.top/images/3/fsai6e1a82.jpg Скачать фильм Пророк через торрент бесплантно в хорошем качестве Описание: Приговоренный к шести годам тюрьмы, Малик Эль Джебена кажется на фоне других заключенных самым «зеленым» и самым уязвимым. Ему 19 ... 8.9 10 10
Info! Золотая раздача, скачанное не засчитывается.
Торрент: Зарегистрирован [2013-07-26 09:21] · скачан: 148 раз
Статус: √ проверено
Размер: 2.06 GB
Как cкачать? Как скачать Пророк через торрент | qTorrent

% Раздел Тема Автор DL S | L
Фильмы [HD 720p, 1080p] (Хороший звук DUB, MVO) [ 11.41 GB ] Пророк / Un prophete [2009 BDRip 720p Dub MVO] от ExKinoRay morfyi Скачать
2 | 0
Фильмы 2009 [ 1.45 GB ] Пророк / Un prophete [2009 HDRip] killermax2013 Скачать
1 | 0
Фильмы 2009 [ 2.05 GB ] Пророк / Un prophete [2009 DVDRip] лицензия DEVI Скачать
1 | 0


>> Регистрируемся здесь <<






Отзывы и комментарии о схеме читаем и пишем здесь: ---> Отзывы и комментарии о схеме

Новые благодарочки в телеграм довольных пользователей:
скриншот   скриншот   скриншот   скриншот   скриншот
    Дорогой пользователь! Огромная просьба, поблагодарите релизера, оцените раздачу и оставьте свои комментарий, если Вы скачали Пророк через торрент бесплатно! Внесите свою лепту в развитие PiratBit!
    Комментировать посты могут только пользователи прошедшие не сложную регистрацию
    Показать сообщения:    

    Пророк через торрент
    Скачать бесплатно Пророк
    Пророк скачать торрент
    Пророк смотреть онлайн
    Cкачать фильм Пророк бесплатно
    Пророк скачать торрент в хорошем качестве
    Пророк смотреть онлайн бесплатно в хорошем качестве


    Вы не можете начинать темы
    Вы не можете отвечать на сообщения
    Вы не можете редактировать свои сообщения
    Вы не можете удалять свои сообщения
    Вы не можете голосовать в опросах
    Вы не можете прикреплять файлы к сообщениям
    Вы можете скачивать файлы