2 сезон

iTunes

MVO

1

2 сезон

iTunes

iTunes

1 сезон

RePack

30

Ultimate

ВАЖНО

ИГРА 18+

pack

RePack

MK11
pack

Легкие деньги

RePack

jed

RePack

fifa19

RePack

RDR2

RePack

NEED FOR SPEED™ PAYBACK

4 сезон

9 сезон

Бесстыжие 9 сезон

Все сериалы

все сериалы на PB.wtf

RePack

FAR CRY 5

Anonymous, добрый вечер, мы не успеваем собрать деньги на оплату серверов за декабрь и январь, помогите нам пожалуйста в это трудное время. В качестве благодарности мы отключим Вам всю рекламу на сайте (укажите свой ник в строку Ваше имя)!

×
  
Magnet ссылка

Любовь без пересадок / Amour & turbulences (Александр Кастаньетти) [ 2013 , Франция , мелодрама, комедия , DVDRip, Дубляж, лицензия] pb.wtf

Любовь без пересадок через торрент pb.wtf

Размер: 1.37 GB | Добавлен: 7 лет 5 мес. назад | Торрент скачан:1139 раз
Скачать  

26-07-2013 22:15 Любовь без пересадок Скачать торрент  

Любовь без пересадок / Amour & turbulences
  • Год выпуска: 2013
  • Страна: Франция
  • Жанр: мелодрама, комедия
  • Продолжительность: 01:33:10
  • Перевод: Дубляж, Лицензия
  • Субтитры: Нет
  • Режиссер: Александр Кастаньетти / Alexandre Castagnetti
  • В ролях: Людивин Санье (Julie), Николя Бедо (Antoine), Джонатан Коэн (Hugo), Арно Дюкре (Franck), Бриджитт Катийон (Claire), Жакки Берруайе (Arthur), Клементин Селарье (Marie), Мишель Вюйермоз (Georges), Лила Сале (Stéphanie), Ина Кастаньетти (Aïssa), Софи-Шарлотт Юссон (Nina), Ив Эспаржилье (Gros monsieur)
  • Описание: Преуспевающий адвокат Антуан никогда не знал недостатка в женском внимании. Отправляясь по делам из Нью-Йорка в Париж, в самолете он оказывается в соседнем кресле с бывшей подругой Джули. Обреченные провести вместе семь долгих часов бывшие любовники успевают вспомнить былые обиды, все неприятности, доставленные друг другу, и понять, что их разрыв был ошибкой. Но успеют ли они эту ошибку исправить?
  • Рейтинг
    kinopoisk.ru: 6.333 (70)
    imdb.com: 5.70 (83)
  • Качество: DVDRip
  • Формат: AVI
  • Видео кодек: XviD
  • Аудио кодек: AC3
  • Видео: XviD, 720x304 (2.35:1), 1831 kbps, 25 fps, 0,335 bpp
  • Аудио: AC3 / 5.1 / 48 kHz / 256 kbps / 16 bit

    General
    Complete name : D:Lubov.bez.peresadok.2013.D.DVDRip.1400MB.INTERCINEMA.avi
    Format : AVI
    Format/Info : Audio Video Interleave
    File size : 1.37 GiB
    Duration : 1h 33mn
    Overall bit rate : 2 098 Kbps
    Movie name : Lubov.bez.peresadok.2013.D.DVDRip.1400MB.INTERCINEMA
    Director : INTERCINEMA
    Writing application : VirtualDubMod 1.5.10.3 | www.virtualdub-fr.org || (build 2550/release)
    Copyright :

    Video
    ID : 0
    Format : MPEG-4 Visual
    Format profile : Advanced Simple@L5
    Format settings, BVOP : 2
    Format settings, QPel : No
    Format settings, GMC : No warppoints
    Format settings, Matrix : Default (MPEG)
    Codec ID : XVID
    Codec ID/Hint : XviD
    Duration : 1h 33mn
    Bit rate : 1 832 Kbps
    Width : 720 pixels
    Height : 304 pixels
    Display aspect ratio : 2.35:1
    Frame rate : 25.000 fps
    Color space : YUV
    Chroma subsampling : 4:2:0
    Bit depth : 8 bits
    Scan type : Progressive
    Compression mode : Lossy
    Bits/(Pixel*Frame) : 0.335
    Stream size : 1.19 GiB (87%)
    Writing library : XviD 1.2.1 (UTC 2008-12-04)

    Audio
    ID : 1
    Format : AC-3
    Format/Info : Audio Coding 3
    Mode extension : CM (complete main)
    Codec ID : 2000
    Duration : 1h 33mn
    Bit rate mode : Constant
    Bit rate : 256 Kbps
    Channel(s) : 6 channels
    Channel positions : Front: L C R, Side: L R, LFE
    Sampling rate : 48.0 KHz
    Bit depth : 16 bits
    Compression mode : Lossy
    Stream size : 171 MiB (12%)
    Alignment : Split accross interleaves
    Interleave, duration : 40 ms (1.00 video frame)
    Interleave, preload duration : 500 ms
    pb.wtf



  • Скачать Любовь без пересадок через торрент http://i6.imageban.ru/out/2013/07/27/9001ef3153ee62d808957e83ab5da3de.jpg Скачать фильм Любовь без пересадок через торрент бесплантно в хорошем качестве Описание: Преуспевающий адвокат Антуан никогда не знал недостатка в женском внимании. Отправляясь по делам из Нью-Йорка в Париж, в самолете ... 9.8 10 29
    Info! Золотая раздача, скачанное не засчитывается.
    Торрент: Зарегистрирован [2013-07-26 22:15] · скачан: 1 139 раз
    Статус: √ проверено
    Размер: 1.37 GB
    Как cкачать? Как скачать Любовь без пересадок через торрент | UTorrent

    28-11-2019 20:33  

    Отключить всю рекламу на сайте

      Дорогой пользователь! Огромная просьба, поблагодарите релизера, оцените раздачу и оставьте свои комментарий, если Вы скачали Любовь без пересадок через торрент бесплатно! Внесите свою лепту в развитие PiratBit!
      Комментировать посты могут только пользователи прошедшие не сложную регистрацию
      Показать сообщения:    

      Любовь без пересадок через торрент
      Скачать бесплатно Любовь без пересадок
      Любовь без пересадок скачать торрент
      Любовь без пересадок смотреть онлайн
      Cкачать фильм Любовь без пересадок бесплатно
      Любовь без пересадок скачать торрент в хорошем качестве
      Любовь без пересадок смотреть онлайн бесплатно в хорошем качестве


      Вы не можете начинать темы
      Вы не можете отвечать на сообщения
      Вы не можете редактировать свои сообщения
      Вы не можете удалять свои сообщения
      Вы не можете голосовать в опросах
      Вы не можете прикреплять файлы к сообщениям
      Вы можете скачивать файлы