Ссылка на приватное зеркало нашего сайта всего за 1$. Внимание количество ограничено!!!

2 сезон

iTunes

1 сезон

1

iTunes

iTunes

iTunes

1 сезон

RePack

30

ИГРА 18+

pack

ВАЖНО

!!Акция!!

Alien_RageХит недели

RePack

MK11
pack

Забери бонус

RePack

jed

!!Акция!!

Alien_Rage

RePack

fifa19

RePack

Assassins Creed: Odyssey

RePack

NEED FOR SPEED™ PAYBACK

4 сезон

9 сезон

Бесстыжие 9 сезон

Все сериалы

все сериалы на PB.wtf

RePack

FAR CRY 5
  

Железяки / Yak (Прапас Чолсаранонт / Prapas Cholsaranont) [ 2012 , Таиланд , мультфильм , DVDRip, Дубляж, лицензия] pb.wtf

Железяки через торрент pb.wtf

Размер: 745 MB | Добавлен: 7 лет 2 мес. назад | Торрент скачан:998 раз
Скачать  

26-07-2013 23:01 Железяки Скачать торрент  

Железяки / Yak
  • Год выпуска: 2012
  • Страна: Таиланд
  • Жанр: мультфильм
  • Продолжительность: 01:33:08
  • Перевод: Дубляж, Лицензия
  • Субтитры: Нет
  • Режиссер: Прапас Чолсаранонт / Prapas Cholsaranont
  • В ролях: Баврибун Чанреанг (Kumbhakarna, озвучка), Сантисук Промсири (Na Khiaw, Ravana, озвучка), Удом Таепханит (Brooks, озвучка), Керрисак Удомнак (Phuak, Hanuman, озвучка)
  • Описание: Вернувшись к жизни после долгих лет сна, роботы Здоровяк и Микро с удивлением обнаруживают, что их тела прочно соединены крепкой цепью. Увы, время стерло им память, и теперь они вынуждены вдвоем отправиться в трудное и опасное путешествие, чтобы вновь обрести свободу. Долгие странствия, наполненные удивительными приключениями, трудными испытаниями и великими подвигами, превращают наших героев в настоящих друзей. Но их дружбе предстоит пройти еще одно, самое главное испытание...
  • Рейтинг
    kinopoisk.ru: 6.594 (1119)
    imdb.com: 7.90 (35)
  • Качество: DVDRip
  • Формат: AVI
  • Видео кодек: XviD
  • Аудио кодек: MP3
  • Видео: XviD, 656x352 (1.864), 980 kbps, 25 fps, 0,170 bpp
  • Аудио: MP3 / 2.0 / 48 kHz / 128 kbps /

    General
    Complete name : D:Zhelezyaki.2012.D.DVDRip.745MB_[Youtracker]_by_avproh.avi
    Format : AVI
    Format/Info : Audio Video Interleave
    File size : 745 MiB
    Duration : 1h 33mn
    Overall bit rate : 1 118 Kbps
    Writing application : VirtualDubModRus 1.5.10.2 (build 2542/release)
    Writing library : VirtualDubMod build 2542/release

    Video
    ID : 0
    Format : MPEG-4 Visual
    Format profile : Advanced Simple@L5
    Format settings, BVOP : 1
    Format settings, QPel : No
    Format settings, GMC : No warppoints
    Format settings, Matrix : Custom
    Codec ID : XVID
    Codec ID/Hint : XviD
    Duration : 1h 33mn
    Bit rate : 981 Kbps
    Width : 656 pixels
    Height : 352 pixels
    Display aspect ratio : 1.864
    Frame rate : 25.000 fps
    Color space : YUV
    Chroma subsampling : 4:2:0
    Bit depth : 8 bits
    Scan type : Progressive
    Compression mode : Lossy
    Bits/(Pixel*Frame) : 0.170
    Stream size : 653 MiB (88%)
    Writing library : XviD 65

    Audio
    ID : 1
    Format : MPEG Audio
    Format version : Version 1
    Format profile : Layer 3
    Mode : Joint stereo
    Mode extension : MS Stereo
    Codec ID : 55
    Codec ID/Hint : MP3
    Duration : 1h 33mn
    Bit rate mode : Constant
    Bit rate : 128 Kbps
    Channel(s) : 2 channels
    Sampling rate : 48.0 KHz
    Compression mode : Lossy
    Stream size : 85.3 MiB (11%)
    Alignment : Aligned on interleaves
    Interleave, duration : 40 ms (1.00 video frame)
    Interleave, preload duration : 504 ms
    pb.wtf



  • Скачать Железяки через торрент http://i2.imageban.ru/out/2013/07/27/0f96841359316ba4b2eb18b29bed917d.jpg Скачать фильм Железяки через торрент бесплантно в хорошем качестве Описание: Вернувшись к жизни после долгих лет сна, роботы Здоровяк и Микро с удивлением обнаруживают, что их тела прочно соединены крепкой ... 9.7 10 44
    Info! Золотая раздача, скачанное не засчитывается.
    Торрент: Зарегистрирован [2013-07-26 23:01] · скачан: 998 раз
    Статус: √ проверено
    Размер: 745 MB
    Как cкачать? Как скачать Железяки через торрент | qTorrent

    % Раздел Тема Автор DL S | L
    Иностранные мультфильмы [ 1.46 GB ] Железяки / Yak [2012 мультфильм DVDRip лицензия] VintMosina Скачать
    1 | 0
    Зарубежные Мультфильмы (DVD) [ 3.92 GB ] Железяки / Yak [2012 мультфильм DVD5] R5 voovaz Скачать
    1 | 0

    28-11-2019 20:33  

    Отключить всю рекламу на сайте

    27-07-2013 00:35 Железяки Скачать торрент  

    прикольный мульт

    http://torrentstream.org/pb.wtf



    27-07-2013 08:34 Железяки Скачать торрент  

    спасибо посмотрел с удовольствием :good2:pb.wtf



    27-07-2013 10:06 Железяки Скачать торрент  

    как мульт народ)?pb.wtf



      Дорогой пользователь! Огромная просьба, поблагодарите релизера, оцените раздачу и оставьте свои комментарий, если Вы скачали Железяки через торрент бесплатно! Внесите свою лепту в развитие PiratBit!
      Комментировать посты могут только пользователи прошедшие не сложную регистрацию
      Показать сообщения:    

      Железяки через торрент
      Скачать бесплатно Железяки
      Железяки скачать торрент
      Железяки смотреть онлайн
      Cкачать фильм Железяки бесплатно
      Железяки скачать торрент в хорошем качестве
      Железяки смотреть онлайн бесплатно в хорошем качестве


      Вы не можете начинать темы
      Вы не можете отвечать на сообщения
      Вы не можете редактировать свои сообщения
      Вы не можете удалять свои сообщения
      Вы не можете голосовать в опросах
      Вы не можете прикреплять файлы к сообщениям
      Вы можете скачивать файлы