Доктор Стрэндж

Лицензия

Добыча

MVO

Дом дракона

1 сезон

Тор

Лицензия

Мэверик

Лицензия

Там, где раки поют

MVO

Властелин колец

1 сезон

Ultimate

pack

Рекомендуем

30

Repack

ВАЖНО

ВАЖНО

Ghostwire

RePack

jed

RePack

nioh2

RePack

RDR2

RePack

NEED FOR SPEED™ PAYBACK

RePack

скачать торрент

Кинопоиск HD

Острые козырьки 6 сезон

6 сезон

FAR CRY 6

RePack

скачать торрент

Лицензия

скачать торрент

MVO

1

1 сезон

скачать торрент

1 сезон

скачать торрент

Лицензия

  

Бессмертные: Война миров / Immortal / Immortel (ad vitam) (Энки Билал / Enki Bilal) [2004, фантастика, фэнтези, мелодрама, криминал, BDRip 720p] Dub |лицензия|

Бессмертные: Война миров через торрент pb.wtf

Размер: 5.99 GB | Добавлен: 6 лет 6 мес. назад | Торрент скачан:531 раз
Смотреть онлайн | Скачать   

27-07-2013 02:08 Бессмертные: Война миров Скачать торрент  

Бессмертные: Война миров / Immortel


  • Год выпуска:2004
  • Страна:Франция, Италия, Великобритания
  • Жанр:мультфильм, фантастика, фэнтези, мелодрама, криминал
  • Продолжительность: 01:42:48
  • Перевод:Профессиональный (полное дублирование) |Лицензия|

  • Субтитры: русские, английские- softsub (SRT)
    • Режиссер:Энки Билал / Enki Bilal

  • В ролях:Линда Харди (Jill Bioskop), Томас Кречманн (Alcide Nikopol), Шарлотта Рэмплинг (Elma Turner), Янн Коллетт (Froebe), Фредерик Пьеро (John), Томас М. Поллард (Horus), Джо Шеридан (Allgood), Коринн Жабер (Lily Liang), Оливье Ашар (Checker), Джерри Ди Джакомо (Jack Turner), Доминик Маю (Hotel Receptionist), Гари Кауэн (Tycho Barman)
    • Описание:
      2095 год. Над трехуровневым Нью-Йорком парит пирамида бессмертных богов, зловещая корпорация «Евгеника» похищает людей для своих тайных экспериментов, а в мрачных закоулках рыщет серийный убийца, про которого известно лишь то, что он - нечеловек.
      Здесь Джилл, загадочную женщину с синими волосами и синими слезами, ждет встреча с древним богом Гором, приговоренным другими богами к смерти. У него есть всего семь дней, чтобы найти человеческую оболочку и соблазнить Джилл, обладающую таинственным даром и способную спасти обреченное божество.
      Единственный выбор Гора - тело замороженного 30 лет назад бунтаря Никопола, которому известны страшные тайны Нью-Йорка будущего...

  • Рейтинг
    kinopoisk.ru: 6.336 (4002)
    imdb.com: 5.90 (14 015)
    MPAA: R - Лицам до 17 лет обязательно присутствие взрослого
    • Качество:BDRip 720p
    • Формат:MKV
    • Видео кодек: AVC
    • Аудио кодек: DTS / AC3
    • Видео: MPEG-4 AVC/x264, 1280x704(16:9), 24 fps, 6055 Kbps, 0.28 b/px*f
      Аудио #1: DTS, 48.0 KHz, 6 ch, 755 Kbps, CBR (Russian)
      Аудио #2: DTS ES, 48.0 KHz, 6 ch, 1 510 Kbps, CBR (English)

    Общее
    Уникальный идентификатор : 173497622452470232609703960037070365569 (0x82866D38065841318F8207D0358A6381)
    Полное имя : F:Immortel (ad vitam).mkv
    Формат : Matroska
    Версия формата : Version 2
    Размер файла : 5,99 Гбайт
    Продолжительность : 1 ч. 43 м.
    Общий поток : 8316 Кбит/сек
    Дата кодирования : UTC 2012-01-14 18:52:15
    Программа кодирования : mkvmerge v5.2.1 ('A Far Off Place') built on Jan 2 2012 23:21:10
    Библиотека кодирования : libebml v1.2.3 + libmatroska v1.3.0
    Видео
    Идентификатор : 1
    Формат : AVC
    Формат/Информация : Advanced Video Codec
    Профиль формата : [email protected]
    Параметр CABAC формата : Да
    Параметр ReFrames формата : 9 кадров
    Идентификатор кодека : V_MPEG4/ISO/AVC
    Продолжительность : 1 ч. 43 м.
    Битрейт : 6055 Кбит/сек
    Ширина : 1280 пикселей
    Высота : 704 пикселя
    Соотношение сторон : 16:9
    Соотношение сторон в оригинале : 16:9
    Частота кадров : 24,000 кадра/сек
    Цветовое пространство : YUV
    Субдискретизация насыщенности : 4:2:0
    Битовая глубина : 8 бит
    Тип развёртки : Прогрессивная
    Бит/(Пиксели*Кадры) : 0.280
    Размер потока : 4,24 Гбайт (71%)
    Заголовок : Immortel (ad vitam)
    Библиотека кодирования : x264 core 116 r2074 2641b9e
    Настройки программы : cabac=1 / ref=9 / deblock=1:-3:-3 / analyse=0x3:0x113 / me=umh / subme=10 / psy=1 / psy_rd=1.00:0.00 / mixed_ref=1 / me_range=32 / chroma_me=1 / trellis=2 / 8x8dct=1 / cqm=0 / deadzone=21,11 / fast_pskip=0 / chroma_qp_offset=-2 / threads=6 / sliced_threads=0 / nr=0 / decimate=0 / interlaced=0 / bluray_compat=0 / constrained_intra=0 / bframes=10 / b_pyramid=2 / b_adapt=2 / b_bias=0 / direct=3 / weightb=1 / open_gop=0 / weightp=2 / keyint=250 / keyint_min=24 / scenecut=40 / intra_refresh=0 / rc=2pass / mbtree=0 / bitrate=6055 / ratetol=1.0 / qcomp=0.60 / qpmin=0 / qpmax=69 / qpstep=4 / cplxblur=20.0 / qblur=0.5 / ip_ratio=1.40 / pb_ratio=1.30 / aq=1:1.00
    Язык : English
    Default : Да
    Forced : Нет
    Аудио #1
    Идентификатор : 2
    Формат : DTS
    Формат/Информация : Digital Theater Systems
    Идентификатор кодека : A_DTS
    Продолжительность : 1 ч. 43 м.
    Вид битрейта : Постоянный
    Битрейт : 755 Кбит/сек
    Каналы : 6 каналов
    Расположение каналов : Front: L C R, Side: L R, LFE
    Частота : 48,0 КГц
    Битовая глубина : 24 бит
    Метод сжатия : С потерями
    Размер потока : 557 Мбайт (9%)
    Заголовок : Russian DTS 755 Kbps
    Язык : Russian
    Default : Да
    Forced : Нет
    Аудио #2
    Идентификатор : 3
    Формат : DTS
    Формат/Информация : Digital Theater Systems
    Профиль формата : ES
    Идентификатор кодека : A_DTS
    Продолжительность : 1 ч. 43 м.
    Вид битрейта : Постоянный
    Битрейт : 1510 Кбит/сек
    Каналы : 6 каналов
    Расположение каналов : Front: L C R, Side: L R, LFE
    Частота : 48,0 КГц
    Битовая глубина : 16 бит
    Метод сжатия : С потерями
    Размер потока : 1,09 Гбайт (18%)
    Заголовок : English DTS 1510 Kbps
    Язык : English
    Default : Нет
    Forced : Нет
    Текст #1
    Идентификатор : 4
    Формат : UTF-8
    Идентификатор кодека : S_TEXT/UTF8
    Идентификатор кодека/Информация : UTF-8 Plain Text
    Язык : Russian
    Default : Да
    Forced : Нет
    Текст #2
    Идентификатор : 5
    Формат : UTF-8
    Идентификатор кодека : S_TEXT/UTF8
    Идентификатор кодека/Информация : UTF-8 Plain Text
    Язык : English
    Default : Нет
    Forced : Нет
    Меню
    00:00:00.000 : en:00:00:00.000
    00:10:03.042 : en:00:10:03.042
    00:17:23.625 : en:00:17:23.625
    00:24:40.250 : en:00:24:40.250
    00:35:09.917 : en:00:35:09.917
    00:42:43.208 : en:00:42:43.208
    00:52:25.667 : en:00:52:25.667
    00:59:49.750 : en:00:59:49.750
    01:06:33.917 : en:01:06:33.917
    01:14:56.125 : en:01:14:56.125
    01:24:50.083 : en:01:24:50.083
    01:33:40.042 : en:01:33:40.042
    01:36:56.333 : en:01:36:56.333

    © Оформление&Постер by Vetal



  • Скачать Бессмертные: Война миров через торрент http://i2-imageban-ru.translate.goog/out/2013/07/27/2f9d6009fd5c1ca05d44e4beb2e6d3d5.png Скачать, смотреть онлайн Бессмертные: Война миров бесплантно в хорошем качестве Описание:2095 год. Над трехуровневым Нью-Йорком парит пирамида бессмертных богов, зловещая корпорация «Евгеника» похищает людей для своих ... 9.6 10 33
    Info! Золотая раздача, скачанное не засчитывается.
    Торрент: Зарегистрирован [2016-03-12 20:03] · скачан: 531 раз
    Статус: √ проверено
    Размер: 5.99 GB
    Как cкачать? Как скачать Бессмертные: Война миров через торрент | UTorrent




    Последний раз редактировалось: Ворон (2016-03-12 21:14), всего редактировалось 2 раз(а)

    28-11-2019 20:33  


    Отключить вcю реклaмy на сайте, в т.ч. и в плеере онлайн просмотра!

    27-07-2013 04:28 Бессмертные: Война миров Скачать торрент  

    пикник-египтянин-555



    12-03-2016 21:37 Бессмертные: Война миров Скачать торрент  

    что то не припомню фильм,вроде смотрел или нет,память куриная стала



    13-03-2016 02:39 Бессмертные: Война миров Скачать торрент  

    Не знаю почему, но мульт мне понравился.



    13-03-2016 16:18 Бессмертные: Война миров Скачать торрент  

    Не знаю почему ... да просто крутой он



      Дорогой пользователь! Огромная просьба, поблагодарите релизера, оцените раздачу и оставьте свои комментарий, если Вы скачали Бессмертные: Война миров через торрент бесплатно!!
      Комментировать посты могут только пользователи прошедшие не сложную регистрацию
      Показать сообщения:    


      Бессмертные: Война миров через торрент
      Скачать бесплатно Бессмертные: Война миров
      Бессмертные: Война миров скачать торрент
      Бессмертные: Война миров смотреть онлайн
      Cкачать фильм Бессмертные: Война миров бесплатно
      Бессмертные: Война миров скачать торрент в хорошем качестве
      Бессмертные: Война миров смотреть онлайн бесплатно в хорошем качестве
      Вы не можете начинать темы
      Вы не можете отвечать на сообщения
      Вы не можете редактировать свои сообщения
      Вы не можете удалять свои сообщения
      Вы не можете голосовать в опросах
      Вы не можете прикреплять файлы к сообщениям
      Вы можете скачивать файлы