1 сезон

1 сезон

iTunes

1

КиноПоиск HD

Кинопоиск HD

iTunes

13

1 сезон

RePack

30

Ultimate

ВАЖНО

ИГРА 18+

pack

RePack

MK11
pack

Легкие деньги

RePack

jed

RePack

fifa19

RePack

RDR2

RePack

NEED FOR SPEED™ PAYBACK

4 сезон

9 сезон

Бесстыжие 9 сезон

Все сериалы

все сериалы на PB.wtf

RePack

FAR CRY 5
  
Magnet ссылка

Бессмертные: Война миров / Immortal / Immortel (ad vitam) (Энки Билал / Enki Bilal) [2004 г., Фантастика, боевик, драма, криминал, BDRip] Dub + Eng + Sub (Rus, Eng) pb.wtf

Бессмертные: Война миров через торрент pb.wtf

Размер: 1.78 GB | Добавлен: 7 лет 8 мес. назад | Торрент скачан:587 раз
Скачать  

27-07-2013 02:19 Бессмертные: Война миров Скачать торрент  

Бессмертные: Война миров / Immortel


  • Год выпуска:2004
  • Страна:Франция, Италия, Великобритания
  • Жанр:мультфильм, фантастика, фэнтези, мелодрама, криминал
  • Продолжительность: 01:43:08
  • Перевод:Профессиональный (полное дублирование) |Лицензия|

  • Субтитры: русские + английские (полные, внешние, srt)
    • Режиссер:Энки Билал / Enki Bilal

  • В ролях:Линда Харди (Jill Bioskop), Томас Кречманн (Alcide Nikopol), Шарлотта Рэмплинг (Elma Turner), Янн Коллетт (Froebe), Фредерик Пьеро (John), Томас М. Поллард (Horus), Джо Шеридан (Allgood), Коринн Жабер (Lily Liang), Оливье Ашар (Checker), Джерри Ди Джакомо (Jack Turner), Доминик Маю (Hotel Receptionist), Гари Кауэн (Tycho Barman)
    • Описание:
      2095 год. Над трехуровневым Нью-Йорком парит пирамида бессмертных богов, зловещая корпорация «Евгеника» похищает людей для своих тайных экспериментов, а в мрачных закоулках рыщет серийный убийца, про которого известно лишь то, что он - нечеловек.
      Здесь Джилл, загадочную женщину с синими волосами и синими слезами, ждет встреча с древним богом Гором, приговоренным другими богами к смерти. У него есть всего семь дней, чтобы найти человеческую оболочку и соблазнить Джилл, обладающую таинственным даром и способную спасти обреченное божество.
      Единственный выбор Гора - тело замороженного 30 лет назад бунтаря Никопола, которому известны страшные тайны Нью-Йорка будущего...

  • Рейтинг
    kinopoisk.ru: 6.336 (4002)
    imdb.com: 5.90 (14 015)
    MPAA: R - Лицам до 17 лет обязательно присутствие взрослого
    • Качество:BDRip
    • Формат:AVI
    • Видео кодек: XviD
    • Аудио кодек: AC3
    • Видео: 720x400 (1.80:1), 24.000 fps, XviD build 65 ~1567 kbps avg,
    • Аудио: 48 kHz, AC3 Dolby Digital, 3/2 (L,C,R,l,r) + LFE ch, ~448 kbps | Rus
    • Аудио 2: AC3 / 5.1 / 48 kHz / 448 kbps / 16 bit | Eng (Отдельно)

    General
    Complete name : D:ТорентыBessmertnye.Voina.Mirov.2004.BDRip.All.Films.RGBessmertnye.Voina.Mirov.2004.BDRip.All.Films.RG.avi
    Format : AVI
    Format/Info : Audio Video Interleave
    File size : 1.46 GiB
    Duration : 1h 43mn
    Overall bit rate : 2 025 Kbps
    Writing application : VirtualDubMod 1.5.10.3 | www.virtualdub-fr.org || (build 2550/release)
    Writing library : VirtualDubMod build 2550/release

    Video
    ID : 0
    Format : MPEG-4 Visual
    Format profile : Advanced Simple@L5
    Format settings, BVOP : 2
    Format settings, QPel : No
    Format settings, GMC : No warppoints
    Format settings, Matrix : Custom
    Codec ID : XVID
    Codec ID/Hint : XviD
    Duration : 1h 43mn
    Bit rate : 1567Kbps
    Width : 720 pixels
    Height : 400 pixels
    Display aspect ratio : 16:9
    Frame rate : 24.000 fps
    Color space : YUV
    Chroma subsampling : 4:2:0
    Bit depth : 8 bits
    Scan type : Progressive
    Compression mode : Lossy
    Bits/(Pixel*Frame) : 0.215
    Stream size : 1.07 GiB (73%)
    Writing library : XviD 65

    Audio
    ID : 1
    Format : AC-3
    Format/Info : Audio Coding 3
    Mode extension : CM (complete main)
    Codec ID : 2000
    Duration : 1h 43mn
    Bit rate mode : Constant
    Bit rate : 448 Kbps
    Channel(s) : 6 channels
    Channel positions : Front: L C R, Side: L R, LFE
    Sampling rate : 48.0 KHz
    Bit depth : 16 bits
    Compression mode : Lossy
    Stream size : 330 MiB (22%)
    Alignment : Split accross interleaves

    © Оформление&Постер by Vetalpb.wtf



  • Скачать Бессмертные: Война миров через торрент http://i2.imageban.ru/out/2013/07/27/db4a6096cd94ad4f99d861b05147aaf5.png Скачать фильм Бессмертные: Война миров через торрент бесплантно в хорошем качестве Описание:2095 год. Над трехуровневым Нью-Йорком парит пирамида бессмертных богов, зловещая корпорация «Евгеника» похищает людей для своих ... 9.6 10 27
    Info! Золотая раздача, скачанное не засчитывается.
    Торрент: Зарегистрирован [2013-07-27 02:19] · скачан: 587 раз
    Статус: √ проверено
    Размер: 1.78 GB
    Как cкачать? Как скачать Бессмертные: Война миров через торрент | UTorrent

    % Раздел Тема Автор DL S | L
    Фильмы [HD 720p, 1080p] (Хороший звук DUB, MVO) [ 5.99 GB ] Бессмертные: Война миров / Immortal / Immortel [2004 BDRip 720p] Dub |лицензия| Ворон Скачать
    1 | 0

    28-11-2019 20:33  

    Отключить всю рекламу на сайте

    27-07-2013 03:40 Бессмертные: Война миров Скачать торрент  

    неплохое зрелищеpb.wtf



    27-07-2013 04:11 Бессмертные: Война миров Скачать торрент  

    Цитата:

    Жанр:мультфильм, фантастика, фэнтези, мелодрама, криминал

    и где тут мульт?pb.wtf



    27-07-2013 06:23 Бессмертные: Война миров Скачать торрент  

    27-07-2013 07:04 Бессмертные: Война миров Скачать торрент  

    здоровский фильмец!pb.wtf



    27-07-2013 10:14 Бессмертные: Война миров Скачать торрент  

    спасибо!пересмотрю с удовольствиемpb.wtf



      Дорогой пользователь! Огромная просьба, поблагодарите релизера, оцените раздачу и оставьте свои комментарий, если Вы скачали Бессмертные: Война миров через торрент бесплатно! Внесите свою лепту в развитие PiratBit!
      Комментировать посты могут только пользователи прошедшие не сложную регистрацию
      Показать сообщения:    

      Бессмертные: Война миров через торрент
      Скачать бесплатно Бессмертные: Война миров
      Бессмертные: Война миров скачать торрент
      Бессмертные: Война миров смотреть онлайн
      Cкачать фильм Бессмертные: Война миров бесплатно
      Бессмертные: Война миров скачать торрент в хорошем качестве
      Бессмертные: Война миров смотреть онлайн бесплатно в хорошем качестве


      Вы не можете начинать темы
      Вы не можете отвечать на сообщения
      Вы не можете редактировать свои сообщения
      Вы не можете удалять свои сообщения
      Вы не можете голосовать в опросах
      Вы не можете прикреплять файлы к сообщениям
      Вы можете скачивать файлы