новый адрес
Ссылка на приватное зеркало всего за 1$. Внимание количество ограничено!!!

iTunes

1+1

iTunes

мы

WEB-DL

1

iTunes

Чернобыль

iTunes

Ральф против интернета

Лицензия

ПШазам

Лицензия

Оно 2

Лицензия

30
pack

Вам бонус

ВАЖНО

!!Акция!!

Alien_RageХит недели

RePack

Resident Evil 21

ИГРА 18+

pack

RePack

jed

!!Акция!!

Alien_Rage

RePack

fifa19

RePack

Assassins Creed: Odyssey

RePack

NEED FOR SPEED™ PAYBACK

3 сезон

9 сезон

Бесстыжие 9 сезон

Все сериалы

все сериалы на PB.wtf

RePack

FAR CRY 5
Ребята, катастрофически не хватает 1900р. для оплаты серверов за Октябрь (всвязи с блокировками трафик упал в 3 раза), 1-2р., выручайте.
  

Простые сложности Нико Фишера / Oh Boy (Ян Оле Герштер / Jan Ole Gerster) [ 2012 , Германия , драма, комедия , HDRip ]VO pb.wtf

Простые сложности Нико Фишера через торрент pb.wtf

Размер: 1.37 GB | Добавлен: 6 лет 4 мес. назад | Торрент скачан:38 раз
Скачать  

27-07-2013 10:49 Простые сложности Нико Фишера Скачать торрент  

Простые сложности Нико Фишера / Oh Boy


  • Год выпуска:2012
  • Страна:Германия
  • Жанр:драма, комедия
  • Продолжительность: 01:25:10
  • Перевод:Любительский (одноголосый) [datynet]

  • Субтитры: Нет
    • Режиссер:Ян Оле Герштер / Jan Ole Gerster

  • В ролях:Том Шиллинг (Niko Fischer), Фридерике Кемптер (Julika Hoffmann), Марк Хосманн (Matze), Юстус фон Донаньи (Nachbar Karl Speckenbach), Фредерик Лау (Ronny), Михаэль Гвиздек (Friedrich), Ульрих Нётен (Walter Fischer), Инга Биркенфелд (Hannah), Фред Аарон Блаке (Café-Gast), Мартин Брамбах (Kontrolleur Jörg), Анника Эрнст (Prostituierte), Катарина Хаук (Café-Besitzerin)
    • Описание:
      Нико уже почти тридцать, он не закончил учебу в университете, его бросила подружка, отец лишает финансовой помощи, а психиатр подтверждает, что у него неустойчивая психика. В поисках выходу и хоть каких-то денег, хотя бы на чашку кофе, Нико бродит по улицам Берлина, что превращается в череду случайных встреч со знакомыми и не очень. Нико персонаж неоднозначный, чье поведение провоцирует непрекращающуюся цепь комических ситуаций...

  • Рейтинг
    kinopoisk.ru: 7.469 (79)
    imdb.com: 7.40 (2 030)
    • Качество:HDRip
    • Формат:AVI
    • Видео кодек: XviD
    • Аудио кодек: AC3
    • Видео: XviD, 720x400 (16:9), 1965 kbps, 24 fps, 0,284 bpp
    • Аудио: AC3 / 2.0 / 48 kHz / 320 kbps / 16 bit

    General
    Complete name : D:ТорентыOh.Boy.2012.HDRip.avi
    Format : AVI
    Format/Info : Audio Video Interleave
    File size : 1.37 GiB
    Duration : 1h 25mn
    Overall bit rate : 2 295 Kbps
    Writing application : VirtualDubMod 1.5.10.3 | www.virtualdub-fr.org || (build 2550/release)
    Writing library : VirtualDubMod build 2550/release

    Video
    ID : 0
    Format : MPEG-4 Visual
    Format profile : Advanced Simple@L5
    Format settings, BVOP : 2
    Format settings, QPel : No
    Format settings, GMC : No warppoints
    Format settings, Matrix : Custom
    Codec ID : XVID
    Codec ID/Hint : XviD
    Duration : 1h 25mn
    Bit rate : 1 966 Kbps
    Width : 720 pixels
    Height : 400 pixels
    Display aspect ratio : 16:9
    Frame rate : 24.000 fps
    Color space : YUV
    Chroma subsampling : 4:2:0
    Bit depth : 8 bits
    Scan type : Progressive
    Compression mode : Lossy
    Bits/(Pixel*Frame) : 0.284
    Stream size : 1.17 GiB (86%)
    Writing library : XviD 1.2.1 (UTC 2008-12-04)

    Audio
    ID : 1
    Format : AC-3
    Format/Info : Audio Coding 3
    Mode extension : CM (complete main)
    Codec ID : 2000
    Duration : 1h 25mn
    Bit rate mode : Constant
    Bit rate : 320 Kbps
    Channel(s) : 2 channels
    Channel positions : Front: L R
    Sampling rate : 48.0 KHz
    Bit depth : 16 bits
    Compression mode : Lossy
    Stream size : 195 MiB (14%)
    Alignment : Split accross interleaves
    Interleave, duration : 42 ms (1.00 video frame)
    Interleave, preload duration : 500 ms

    © Оформление by Vetalpb.wtf



  • Скачать Простые сложности Нико Фишера через торрент http://i2.imageban.ru/out/2013/07/27/48e9c7b7df08ab4e2d6e46776abc3d2d.jpg Скачать фильм Простые сложности Нико Фишера через торрент бесплантно в хорошем качестве Описание:Нико уже почти тридцать, он не закончил учебу в университете, его бросила подружка, отец лишает финансовой помощи, а психиатр ... 10 10 4
    Info! Золотая раздача, скачанное не засчитывается.
    Торрент: Зарегистрирован [2013-07-27 10:49] · скачан: 38 раз
    Статус: √ проверено
    Размер: 1.37 GB
    Как cкачать? Как скачать Простые сложности Нико Фишера через торрент | qTorrent

    % Раздел Тема Автор DL S | L
    T Фильмы 2012 [ 1.46 GB ] Простые сложности Нико Фишера / Oh Boy [2012 Германия HDRip] MVO Ворон Скачать
    1 | 0

    28-11-2019 20:33  

    Отключить всю рекламу на сайте

      Дорогой пользователь! Огромная просьба, поблагодарите релизера, оцените раздачу и оставьте свои комментарий, если Вы скачали Простые сложности Нико Фишера через торрент бесплатно! Внесите свою лепту в развитие PiratBit!
      Комментировать посты могут только пользователи прошедшие не сложную регистрацию
      Показать сообщения:    

      Простые сложности Нико Фишера через торрент
      Скачать бесплатно Простые сложности Нико Фишера
      Простые сложности Нико Фишера скачать торрент
      Простые сложности Нико Фишера смотреть онлайн
      Cкачать фильм Простые сложности Нико Фишера бесплатно
      Простые сложности Нико Фишера скачать торрент в хорошем качестве
      Простые сложности Нико Фишера смотреть онлайн бесплатно в хорошем качестве


      Вы не можете начинать темы
      Вы не можете отвечать на сообщения
      Вы не можете редактировать свои сообщения
      Вы не можете удалять свои сообщения
      Вы не можете голосовать в опросах
      Вы не можете прикреплять файлы к сообщениям
      Вы можете скачивать файлы