Ссылка на приватное зеркало нашего сайта всего за 1$. Внимание количество ограничено!!!

2 сезон

iTunes

1 сезон

1

2 сезон

2 сезон

iTunes

1 сезон

RePack

30

Новинка

ВАЖНО

ИГРА 18+

pack

RePack

MK11
pack

Забери бонус

RePack

jed

!!Акция!!

Alien_Rage

RePack

fifa19

RePack

Assassins Creed: Odyssey

RePack

NEED FOR SPEED™ PAYBACK

4 сезон

9 сезон

Бесстыжие 9 сезон

Все сериалы

все сериалы на PB.wtf

RePack

FAR CRY 5
  

Пятый элемент / The Fifth Element (Люк Бессон / Luc Besson) [1997 г., фантастика, боевик, комедия, BDRip] Dub (НТВ Профит) pb.wtf

Пятый элемент через торрент pb.wtf

Раздают: 1 [ 0 KB/s ]
Размер: 1.47 GB | Добавлен: 7 лет 4 мес. назад | Торрент скачан:653 раза
Скачать  

27-07-2013 11:28 Пятый элемент Скачать торрент  

Пятый элемент / The Fifth Element

«It Mu5t Be Found.»

  • Год выпуска:1997
  • Страна:Франция
  • Жанр:фантастика, боевик, триллер, комедия
  • Продолжительность: 02:06:31
  • Перевод:Профессиональный (полное дублирование)

  • Субтитры: Нет
    • Режиссер:Люк Бессон / Luc Besson

  • В ролях:Брюс Уиллис (Korben Dallas), Милла Йовович (Leeloo), Гари Олдман (Jean-Baptiste Emanuel Zorg), Иэн Холм (Father Vito Cornelius), Крис Такер (Ruby Rhod), Люк Перри (Billy), Брайон Джеймс (General Munro), Том ’Тайни’ Листер мл. (President Lindberg), Ли Эванс (Fog), Чарли Крид-Майлз (David), Трики (Right Arm), Джон Невилл (General Staedert)
    • Описание:
      Каждые пять тысяч лет открываются двери между измерениями и темные силы стремятся нарушить существующую гармонию. Каждые пять тысяч лет Вселенной нужен герой, способный противостоять этому злу. XXIII век. Нью-йоркский таксист Корбен Даллас должен решить глобальную задачу - спасение всего рода человеческого.
      Зло в виде раскаленной массы, наделенной интеллектом, надвигается на Землю. Победить его можно, только лишь собрав воедино четыре элемента (они же стихии - земля, вода, воздух и огонь) и добавив к ним загадочный пятый элемент.

  • Рейтинг
    kinopoisk.ru: 8.194 (147 376)
    imdb.com: 7.60 (228 093)
    MPAA: PG-13 - Детям до 13 лет просмотр не желателен
    • Качество:BDRip
    • Формат:AVI
    • Видео кодек: XviD
    • Аудио кодек: AC3
    • Видео: XviD, 720x304 (2.35:1), 1459 kbps, 23,976 fps, 0,278 bpp
    • Аудио: AC3 / 2.0 / 48 kHz / 192 kbps / 16 bit

    General
    Complete name : D:ТорентыPyatiy.Element.1997.BDRip.avi
    Format : AVI
    Format/Info : Audio Video Interleave
    File size : 1.47 GiB
    Duration : 2h 6mn
    Overall bit rate : 1 660 Kbps
    Writing application : VirtualDubMod 1.5.10.3 | www.virtualdub-fr.org || (build 2550/release)
    Writing library : VirtualDubMod build 2550/release

    Video
    ID : 0
    Format : MPEG-4 Visual
    Format profile : Advanced Simple@L5
    Format settings, BVOP : 1
    Format settings, QPel : No
    Format settings, GMC : No warppoints
    Format settings, Matrix : Custom
    Codec ID : XVID
    Codec ID/Hint : XviD
    Duration : 2h 6mn
    Bit rate : 1 460 Kbps
    Width : 720 pixels
    Height : 304 pixels
    Display aspect ratio : 2.35:1
    Frame rate : 23.976 fps
    Color space : YUV
    Chroma subsampling : 4:2:0
    Bit depth : 8 bits
    Scan type : Progressive
    Compression mode : Lossy
    Bits/(Pixel*Frame) : 0.278
    Stream size : 1.29 GiB (88%)
    Writing library : XviD 64

    Audio
    ID : 1
    Format : AC-3
    Format/Info : Audio Coding 3
    Mode extension : CM (complete main)
    Codec ID : 2000
    Duration : 2h 5mn
    Bit rate mode : Constant
    Bit rate : 192 Kbps
    Channel(s) : 2 channels
    Channel positions : Front: L R
    Sampling rate : 48.0 KHz
    Bit depth : 16 bits
    Compression mode : Lossy
    Stream size : 173 MiB (12%)
    Alignment : Split accross interleaves
    Interleave, duration : 42 ms (1.01 video frame)
    Interleave, preload duration : 500 ms

    © Оформление by Vetalpb.wtf



  • Скачать Пятый элемент через торрент http://i2.imageban.ru/out/2013/07/27/e3fb0af0b0354aed405b484c0b350851.png Скачать фильм Пятый элемент через торрент бесплантно в хорошем качестве Описание:Каждые пять тысяч лет открываются двери между измерениями и темные силы стремятся нарушить существующую гармонию. Каждые пять ... 9.7 10 19
    Info! Золотая раздача, скачанное не засчитывается.
    Торрент: Зарегистрирован [2013-07-27 11:28] · скачан: 653 раз
    Статус: √ проверено
    Размер: 1.47 GB
    Как cкачать? Как скачать Пятый элемент через торрент | qTorrent

    % Раздел Тема Автор DL S | L
    Ultra HD (UHD: 2K, 4K, 8K) — видео сверхвысокой чёткости [ 70.5 GB ] Пятый элемент / The Fifth Element [1997 UHD BDRemux 2160p ] DUB [ BD-RUS - "Амальгама"] bober100 Скачать
    2 | 0
    Ultra HD (UHD: 2K, 4K, 8K) — видео сверхвысокой чёткости [ 78.9 GB ] Пятый элемент / The Fifth Element [1997 UHD BDRemux 2160p ] 2xDUB bober100 Скачать
    1 | 0
    Ultra HD (UHD: 2K, 4K, 8K) — видео сверхвысокой чёткости [ 39.53 GB ] Пятый элемент / The Fifth Element [1997 UHD BDRip 2160p] 2xDUB + MVO + DVO + 3xAVO + 3xMVO sheker187 Скачать
    1 | 0
    Фильмы [HD 720p, 1080p] (Хороший звук DUB, MVO) [ 6.29 GB ] Пятый элемент / The Fifth Element [1997 BDRip 1080p HEVC ] Мичман37 Скачать
    1 | 0
    Ultra HD (UHD: 2K, 4K, 8K) — видео сверхвысокой чёткости [ 51.61 GB ] Пятый элемент / The Fifth Element [1997 UHD BDRemux 2160p] 2xDUB bober100 Скачать
    1 | 0
    Ultra HD (UHD: 2K, 4K, 8K) — видео сверхвысокой чёткости [ 58.13 GB ] Пятый элемент / The Fifth Element [1997 UHDWEBRip 2160p] [4K Remastered] 2xDUB+MVO+DVO+3xAVO bober100 Скачать
    2 | 0
    Фильмы (HD 720p, 1080p) (48-60 fps) [ 14.1 GB ] Пятый элемент / The Fifth Element [1997 BDRip 1080p / 60 FPS] Tiberiumsun69 Скачать
    1 | 0

    28-11-2019 20:33  

    Отключить всю рекламу на сайте

    27-07-2013 12:17 Пятый элемент Скачать торрент  

    КЛАССИКА!смотрительно тогда и сейчассpb.wtf



    21-01-2017 12:33 Пятый элемент Скачать торрент  

    непонимаю че тут может нравиться на мой взгляд фильм на разокpb.wtf



    21-01-2017 14:12 Пятый элемент Скачать торрент  

    клюв,
    Год выпуска:1997
    Глянул бы ты его в те годы то понял. А нынче все разбалованы)=pb.wtf



    25-02-2017 17:22 Пятый элемент Скачать торрент  

    Ворон писал(а):

    клюв,
    Год выпуска:1997
    Глянул бы ты его в те годы то понял. А нынче все разбалованы)=

    я смотрел и в те годы в видеосалоне а сейчас решил освежить воспоминания и всё равно на мой взгляд есть фильмы получшеpb.wtf



      Дорогой пользователь! Огромная просьба, поблагодарите релизера, оцените раздачу и оставьте свои комментарий, если Вы скачали Пятый элемент через торрент бесплатно! Внесите свою лепту в развитие PiratBit!
      Комментировать посты могут только пользователи прошедшие не сложную регистрацию
      Показать сообщения:    

      Пятый элемент через торрент
      Скачать бесплатно Пятый элемент
      Пятый элемент скачать торрент
      Пятый элемент смотреть онлайн
      Cкачать фильм Пятый элемент бесплатно
      Пятый элемент скачать торрент в хорошем качестве
      Пятый элемент смотреть онлайн бесплатно в хорошем качестве


      Вы не можете начинать темы
      Вы не можете отвечать на сообщения
      Вы не можете редактировать свои сообщения
      Вы не можете удалять свои сообщения
      Вы не можете голосовать в опросах
      Вы не можете прикреплять файлы к сообщениям
      Вы можете скачивать файлы