1 сезон

3 сезон

iTunes

1

iTunes

MVO

iTunes

13

1 сезон

RePack

30

Deluxe

pack

Лицензия

ВАЖНО

ИГРА 18+

pack

RePack

MK11

RePack

jed

RePack

fifa19

RePack

RDR2

RePack

NEED FOR SPEED™ PAYBACK

4 сезон

9 сезон

Бесстыжие 9 сезон

Все сериалы

все сериалы на PB.wtf

RePack

FAR CRY 5

Anonymous, доброе утро, мы катастрофически не успеваем собрать деньги на оплату серверов, помогите нам пожалуйста 5,10,15р., для нас важна любая помощь . В качестве благодарности мы отключим Вам всю рекламу на сайте (укажите свой ник в строку Ваше имя)!

×
  
Magnet ссылка

Раз! Два! Три! Умри! / Sightseers (Бен Уитли / Ben Wheatley) [2012, комедия, DVD5] R5 pb.wtf

Раз! Два! Три! Умри! через торрент pb.wtf

Размер: 4.28 GB | Добавлен: 7 лет 11 мес. назад | Торрент скачан:81 раз
Скачать  

27-07-2013 18:33 Раз! Два! Три! Умри! Скачать торрент  


Раз! Два! Три! Умри! / Sightseers
«Роуд-муви о влюбленных… в убийства»
Страна: Великобритания
Студия: BFI, Big Talk Productions, Film4, Rook Films, StudioCanal
Жанр: комедия
Год выпуска: 2012
Мировая премьера: 23 мая 2012
Российская премьера: 21 февраля 2013
Дата выхода DVD: 25 июля 2013
Продолжительность: 01:24:31
Перевод: Профессиональный (дублированный) [Лицензия]
Cубтитры: нет
Оригинальная аудиодорожка: нет
Режиссер: Бен Уитли / Ben Wheatley
В ролях: Элис Лоу, Эйлин Дейвис, Стив Орам, Роджер Майкл, Тони Вэй, Симус О’Нилл, Моника Долан, Джонатан Арис, Аймен Хамдуши, Том Митан...
Описание: Самая обычная влюбленная парочка, Тина и Крис, отправляются в самое обычное путешествие по северу Англии в самом обычном фургончике. Внешне они ничем не отличаются от типичных английских туристов — милые, похотливые и одержимые друг другом зануды, которых раздражает и бесит практически всё: от шумных сектантов и брошенной на пол в автобусе обертки мороженого до обидных слов в свой адрес и хвастовства случайных милых знакомых.
Вот только Крис совсем не относится к числу тех, кто готов мириться с «раздражителями», а Тина окажется вовсе не так невинна: идеальные убойные каникулы влюбленных начинаются в Англии.

Бонусы: нет

Релиз группы:
Качество: DVD5 R5
Формат: DVD-Video
Видео кодек: MPEG2
Аудио кодек: AC3
Видео: PAL 16:9 (720x576(0.686)) MPEG Video, 25,000 кадр/сек, 7111 Кбит/сек
Аудио: Russian (Dolby AC3, 6 ch) 256 Кбит/сек, 48,0 КГц



Title: Raz.Dva.Tri.Umri.2012.DVD5
Size: 4.28 Gb ( 4 492 346,00 KBytes ) - DVD-5
Enabled regions: 1, 2, 3, 4, 5, 6, 7, 8

VTS_01 :
Play Length: 00:00:19
Video: PAL 16:9 (720x576) VBR, Auto Pan&Scan, Auto Letterboxed
Audio:
Not specified (Dolby AC3, 2 ch)

VTS_02 :
Play Length: 00:00:16
Video: PAL 16:9 (720x576) VBR, Auto Pan&Scan, Auto Letterboxed
Audio:
Not specified (LinearPCM, 2 ch)

VTS_03 :
Play Length: 01:24:31
Video: PAL 16:9 (720x576) VBR, Auto Letterboxed
Audio:
Not specified (Dolby AC3, 6 ch)

* Menus Information *

VIDEO_TS Menu
Video:
PAL 16:9 (720x576) VBR
Auto Pan&Scan, Auto Letterboxed
Russian Language Unit :
Title Menu

VTS_01 Menu
Video:
PAL 16:9 (720x576) VBR
Auto Pan&Scan, Auto Letterboxed
Audio:
Not specified (Dolby AC3, 6 ch)
Russian Language Unit :
Root Menu

VTS_02 Menu
Video:
PAL 4:3 (720x576) VBR
Russian Language Unit :
Root Menu

VTS_03 Menu
Video:
PAL 4:3 (720x576) VBR
Russian Language Unit :
Root Menu
Общее
Полное имя : M:Новинки 2013Raz.Dva.Tri.Umri.2012.DVD5VIDEO_TSVTS_03_1.VOB
Формат : MPEG-PS
Размер файла : 1024 Мбайт
Продолжительность : 19 м.
Режим общего битрейта : Переменный
Общий поток : 7517 Кбит/сек

Видео
Идентификатор : 224 (0xE0)
Формат : MPEG Video
Версия формата : Version 2
Профиль формата : Main@Main
Параметр BVOP формата : Да
Параметр матрицы формата : Выборочная
Параметр GOP формата : M=3, N=15
Продолжительность : 19 м.
Вид битрейта : Переменный
Битрейт : 7111 Кбит/сек
Максимальный битрейт : 9000 Кбит/сек
Ширина : 720 пикселей
Высота : 576 пикселей
Соотношение сторон : 16:9
Частота кадров : 25,000 кадров/сек
Стандарт вещания : PAL
Цветовое пространство : YUV
Субдискретизация насыщенности : 4:2:0
Битовая глубина : 8 бит
Тип развёртки : Чересстрочная
Порядок развёртки : Верхнее поле первое
Метод сжатия : С потерями
Бит/(Пиксели*Кадры) : 0.686
TimeCode_FirstFrame : 00:00:00:00
TimeCode_Source : Group of pictures header
Размер потока : 969 Мбайт (95%)

Аудио
Идентификатор : 189 (0xBD)-128 (0x80)
Формат : AC-3
Формат/Информация : Audio Coding 3
Расширение режима : CM (complete main)
Параметр Endianness формата : Big
Режим смешивания : DVD-Video
Продолжительность : 19 м.
Вид битрейта : Постоянный
Битрейт : 256 Кбит/сек
Каналы : 6 каналов
Расположение каналов : Front: L C R, Side: L R, LFE
Частота : 48,0 КГц
Битовая глубина : 16 бит
Метод сжатия : С потерями
Размер потока : 34,9 Мбайт (3%)










pb.wtf



Скачать Раз! Два! Три! Умри! через торрент http://s41.radikal.ru/i094/1307/87/c79e8811d452.jpg Скачать фильм Раз! Два! Три! Умри! через торрент бесплантно в хорошем качестве Описание: Самая обычная влюбленная парочка, Тина и Крис, отправляются в самое обычное путешествие по северу Англии в самом обычном ... 10 10 8
Info! Золотая раздача, скачанное не засчитывается.
Торрент: Зарегистрирован [2013-07-27 18:33] · скачан: 81 раз
Статус: √ проверено
Размер: 4.28 GB
Как cкачать? Как скачать Раз! Два! Три! Умри! через торрент | UTorrent

28-11-2019 20:33  

Отключить всю рекламу на сайте


17-11-2013 15:20 Раз! Два! Три! Умри! Скачать торрент  

Огромное спасибо за раздачу! Так бы никогда и не узнал о фильме.
Так хорошо иногда заесть приторные голливудские штампы соленым европейским сыром.pb.wtf



    Дорогой пользователь! Огромная просьба, поблагодарите релизера, оцените раздачу и оставьте свои комментарий, если Вы скачали Раз! Два! Три! Умри! через торрент бесплатно! Внесите свою лепту в развитие PiratBit!
    Комментировать посты могут только пользователи прошедшие не сложную регистрацию
    Показать сообщения:    

    Раз! Два! Три! Умри! через торрент
    Скачать бесплатно Раз! Два! Три! Умри!
    Раз! Два! Три! Умри! скачать торрент
    Раз! Два! Три! Умри! смотреть онлайн
    Cкачать фильм Раз! Два! Три! Умри! бесплатно
    Раз! Два! Три! Умри! скачать торрент в хорошем качестве
    Раз! Два! Три! Умри! смотреть онлайн бесплатно в хорошем качестве


    Вы не можете начинать темы
    Вы не можете отвечать на сообщения
    Вы не можете редактировать свои сообщения
    Вы не можете удалять свои сообщения
    Вы не можете голосовать в опросах
    Вы не можете прикреплять файлы к сообщениям
    Вы можете скачивать файлы