Мега распродажа FORZA HORIZON 4 ULTIMATE+ВСЕ DLC+ОНЛАЙН всего за 499р. 349 руб. (супер цена). Внимание количество ограничено!!!

iTunes

1+1

iTunes

мы

iTunes

1

1 сезон

Чернобыль

1 сезон

Ральф против интернета

Лицензия

ПШазам

8 сезон

Игра престолов

Лицензия

30
pack

ВАЖНО

!!Акция!!

Alien_RageХит недели

RePack

Resident Evil 21

ИГРА 18+

pack

RePack

Metro:Exodus

!!Акция!!

Alien_Rage

RePack

fifa19

RePack

Assassins Creed: Odyssey

RePack

NEED FOR SPEED™ PAYBACK

3 сезон

9 сезон

Бесстыжие 9 сезон

Все сериалы

все сериалы на PB.wtf

RePack

FAR CRY 5
Ребята, катастрофически не хватает 2730р. для оплаты серверов за ИЮНЬ (всвязи с блокировками трафик упал в 3 раза), 1-2р., выручайте.
  

Смерч / Twister (Ян Де Бонт / Jan de Bont) [1996, Боевик, триллер, драма, приключения, BDRip-AVC] Dub / лицензия! pb.wtf

Смерч через торрент pb.wtf

Размер: 2.19 GB | Добавлен: 5 лет 11 мес. назад | Торрент скачан:350 раз
Скачать  

28-07-2013 07:59 Смерч Скачать торрент  

Смерч / Twister

«Темная сторона природы.»


  • Год выпуска: 1996
  • Выпущено: США / Amblin Entertainment, Constant c Productions, Universal Pictures, Warner Bros. Pictures Co.
  • Жанр: Боевик, триллер, драма, приключения
  • Продолжительность: 01:53:02
  • Перевод: Профессиональный (полное дублирование) | Лицензия!
  • Субтитры: Английские, русские |отключаемые|

  • Режиссер:
    Ян Де Бонт / Jan de Bont

  • В ролях:
    Хелен Хант, Билл Пэкстон, Кэри Элвис, Джэми Герц, Филип Сеймур Хоффман, Луис Смит, Алан Рак, Шон Уэйлен, Скотт Томсон, Тодд Филд

  • Описание:
    Поражающий воображение, снятый с большим размахом и дорогостоящими спецэффектами фильм - катастрофа, в создании которого принимали участие такие мастера кассовых кинолент, как режиссер Ян Де Бонт (`Скорость`), сценарист Майкл Крайтон (`Конго`, `Парк юрского периода`, режиссер фильмов `Мир Дикого Запада`, `Кома`, `Охотник на роботов`) и легендарный Стивен Спилберг - здесь он выступил в качестве продюсера. Рушащиеся, словно карточные домики, здания, разорванные линии электропередач, поднятые в воздух автомобили и животные, гибнущие люди... Мелкими и незначительными оказываются личные неурядицы героев перед лицом разбушевавшейся стихии. В отчаянный поединок с грозным и малоизученным явлением природы вступают ученые - метеорологи... `Картина штормовой силы! Спецэффекты создают потрясающее зрелище!


  • Тип релиза: BDRip-AVC
  • Формат: MKV
  • Видео кодек: х.264
  • Аудио кодек: AC3
  • Видео: х.264, 1040x430 (2.40:1), 23,976 fps, 2129 Kbps, 0.199 bit/pixel
  • Аудио 1: 48 kHz, AC3, 2/0 (L,R) ch, 192.00 kbps | RUS
  • Аудио 2: 48 kHz, AC3 Dolby Digital, 3/2 (L,C,R,l,r) + LFE ch, 448.00 kbps | ENG


Общее
Уникальный идентификатор : 241537435981434095083564250269234027140 (0xB5B66B064A0A5CAD9C9326A2FAE8DA84)
Полное имя : Smerch.1996.DUAL.BDRip.x264.-HELLYWOOD.mkv
Формат : Matroska
Версия формата : Version 4 / Version 2
Размер файла : 2,19 Гбайт
Продолжительность : 1 ч. 53 м.
Общий поток : 2771 Кбит/сек
Название фильма : -=POTROKS=-
Дата кодирования : UTC 2013-07-22 05:17:18
Программа кодирования : mkvmerge v5.9.0 ('On The Loose') built on Dec 15 2012 16:39:58
Библиотека кодирования : libebml v1.3.0 + libmatroska v1.4.0

Видео
Идентификатор : 1
Формат : AVC
Формат/Информация : Advanced Video Codec
Профиль формата : High@L4.1
Параметр CABAC формата : Да
Параметр ReFrames формата : 10 кадров
Идентификатор кодека : V_MPEG4/ISO/AVC
Продолжительность : 1 ч. 53 м.
Битрейт : 2129 Кбит/сек
Ширина : 1040 пикселей
Высота : 430 пикселей
Соотношение сторон : 2,40:1
Режим частоты кадров : Постоянный
Частота кадров : 23,976 кадра/сек
Цветовое пространство : YUV
Субдискретизация насыщенности : 4:2:0
Битовая глубина : 8 бит
Тип развёртки : Прогрессивная
Бит/(Пиксели*Кадры) : 0.199
Размер потока : 1,64 Гбайт (75%)
Заголовок : Twister
Библиотека кодирования : x264 core 130 r2273 b3065e6
Настройки программы : cabac=1 / ref=10 / deblock=1:-3:-2 / analyse=0x3:0x133 / me=umh / subme=11 / psy=1 / psy_rd=1.05:0.00 / mixed_ref=1 / me_range=32 / chroma_me=1 / trellis=2 / 8x8dct=1 / cqm=0 / deadzone=21,11 / fast_pskip=0 / chroma_qp_offset=-2 / threads=9 / lookahead_threads=2 / sliced_threads=0 / nr=0 / decimate=1 / interlaced=0 / bluray_compat=0 / constrained_intra=0 / bframes=11 / b_pyramid=2 / b_adapt=2 / b_bias=0 / direct=3 / weightb=1 / open_gop=0 / weightp=2 / keyint=250 / keyint_min=23 / scenecut=40 / intra_refresh=0 / rc_lookahead=150 / rc=2pass / mbtree=1 / bitrate=2129 / ratetol=1.0 / qcomp=0.70 / qpmin=0 / qpmax=69 / qpstep=4 / cplxblur=20.0 / qblur=0.5 / vbv_maxrate=20000 / vbv_bufsize=20000 / nal_hrd=none / ip_ratio=1.35 / aq=1:0.80
Язык : English
Default : Да
Forced : Нет

Аудио #1
Идентификатор : 2
Формат : AC-3
Формат/Информация : Audio Coding 3
Расширение режима : CM (complete main)
Параметр Endianness формата : Big
Идентификатор кодека : A_AC3
Продолжительность : 1 ч. 53 м.
Вид битрейта : Постоянный
Битрейт : 192 Кбит/сек
Каналы : 2 канала
Расположение каналов : Front: L R
Частота : 48,0 КГц
Битовая глубина : 16 бит
Метод сжатия : С потерями
Размер потока : 155 Мбайт (7%)
Default : Да
Forced : Нет

Аудио #2
Идентификатор : 3
Формат : AC-3
Формат/Информация : Audio Coding 3
Расширение режима : CM (complete main)
Параметр Endianness формата : Big
Идентификатор кодека : A_AC3
Продолжительность : 1 ч. 53 м.
Вид битрейта : Постоянный
Битрейт : 448 Кбит/сек
Каналы : 6 каналов
Расположение каналов : Front: L C R, Side: L R, LFE
Частота : 48,0 КГц
Битовая глубина : 16 бит
Метод сжатия : С потерями
Размер потока : 362 Мбайт (16%)
Default : Нет
Forced : Нет

Текст #1
Идентификатор : 4
Формат : UTF-8
Идентификатор кодека : S_TEXT/UTF8
Идентификатор кодека/Информация : UTF-8 Plain Text
Язык : Russian
Default : Нет
Forced : Нет

Текст #2
Идентификатор : 5
Формат : UTF-8
Идентификатор кодека : S_TEXT/UTF8
Идентификатор кодека/Информация : UTF-8 Plain Text
Язык : English
Default : Нет
Forced : Нет
x264 [info]: frame I:973 Avg QP:16.95 size: 49125
x264 [info]: frame P:45159 Avg QP:19.96 size: 18321
x264 [info]: frame B:116480 Avg QP:21.81 size: 7982
x264 [info]: consecutive B-frames: 4.9% 7.3% 14.6% 27.5% 19.1% 21.3% 3.0% 1.2% 0.4% 0.3% 0.1% 0.2%
x264 [info]: mb I I16..4: 7.8% 76.6% 15.6%
x264 [info]: mb P I16..4: 1.4% 12.6% 1.4% P16..4: 34.0% 37.2% 9.3% 1.1% 0.1% skip: 2.9%
x264 [info]: mb B I16..4: 0.1% 2.2% 0.2% B16..8: 38.6% 23.5% 3.2% direct: 5.6% skip:26.6% L0:41.6% L1:46.3% BI:12.1%
x264 [info]: 8x8 transform intra:82.4% inter:74.5%
x264 [info]: direct mvs spatial:98.1% temporal:1.9%
x264 [info]: coded y,uvDC,uvAC intra: 84.9% 78.4% 41.9% inter: 30.6% 23.9% 2.1%
x264 [info]: i16 v,h,dc,p: 30% 11% 4% 55%
x264 [info]: i8 v,h,dc,ddl,ddr,vr,hd,vl,hu: 6% 6% 3% 10% 17% 16% 16% 13% 13%
x264 [info]: i4 v,h,dc,ddl,ddr,vr,hd,vl,hu: 9% 7% 3% 8% 17% 16% 16% 11% 13%
x264 [info]: i8c dc,h,v,p: 35% 26% 18% 20%
x264 [info]: Weighted P-Frames: Y:5.3% UV:2.6%
x264 [info]: ref P L0: 46.3% 11.3% 16.7% 6.4% 5.2% 3.9% 3.5% 2.1% 2.0% 1.9% 0.6% 0.0%
x264 [info]: ref B L0: 77.3% 10.4% 4.5% 2.5% 1.8% 1.4% 1.2% 0.6% 0.3%
x264 [info]: ref B L1: 94.3% 5.7%
x264 [info]: kb/s:2128.89

x264 [total]: encoded 162612 frames, 7.36 fps, 2128.89 kb/s

TIME
------------------------------
Общее время кодирования: 7 hour 58 min 37 sec
Файл получился на: 1722.40 mb



pb.wtf



Скачать Смерч через торрент http://i28.fastpic.ru/big/2012/0112/59/faad942bb865272df7775513da3a4e59.png Скачать фильм Смерч через торрент бесплантно в хорошем качестве Описание:Поражающий воображение, снятый с большим размахом и дорогостоящими спецэффектами фильм - катастрофа, в создании которого принимали ... 9.9 10 11
Info! Золотая раздача, скачанное не засчитывается.
Торрент: Зарегистрирован [2013-07-28 07:59] · скачан: 350 раз
Статус: √ проверено
Размер: 2.19 GB
Как cкачать? Как скачать Смерч через торрент | qTorrent


>> Регистрируемся здесь <<






Отзывы и комментарии о схеме читаем и пишем здесь: ---> Отзывы и комментарии о схеме

Новые благодарочки в телеграм довольных пользователей:
скриншот   скриншот   скриншот   скриншот   скриншот

28-07-2013 09:29 Смерч Скачать торрент  

Помню, смотрел на видеокассете, с гундосым переводом :) Году в 97 наверно.pb.wtf



28-07-2013 12:06 Смерч Скачать торрент  

Да,отличный фильм.Еще помню был в тоже время Пик Данте про вулкан.pb.wtf



    Дорогой пользователь! Огромная просьба, поблагодарите релизера, оцените раздачу и оставьте свои комментарий, если Вы скачали Смерч через торрент бесплатно! Внесите свою лепту в развитие PiratBit!
    Комментировать посты могут только пользователи прошедшие не сложную регистрацию
    Показать сообщения:    

    Смерч через торрент
    Скачать бесплатно Смерч
    Смерч скачать торрент
    Смерч смотреть онлайн
    Cкачать фильм Смерч бесплатно
    Смерч скачать торрент в хорошем качестве
    Смерч смотреть онлайн бесплатно в хорошем качестве


    Вы не можете начинать темы
    Вы не можете отвечать на сообщения
    Вы не можете редактировать свои сообщения
    Вы не можете удалять свои сообщения
    Вы не можете голосовать в опросах
    Вы не можете прикреплять файлы к сообщениям
    Вы можете скачивать файлы