Ссылка на приватное зеркало всего за 1$. Внимание количество ограничено!!!

iTunes

1+1

iTunes

мы

WEB-DL

1

iTunes

Чернобыль

iTunes

Ральф против интернета

Лицензия

ПШазам

Лицензия

Оно 2

Лицензия

30
pack

Вам бонус

ВАЖНО

!!Акция!!

Alien_RageХит недели

RePack

Resident Evil 21

ИГРА 18+

pack

RePack

jed

!!Акция!!

Alien_Rage

RePack

fifa19

RePack

Assassins Creed: Odyssey

RePack

NEED FOR SPEED™ PAYBACK

3 сезон

9 сезон

Бесстыжие 9 сезон

Все сериалы

все сериалы на PB.wtf

RePack

FAR CRY 5
Ребята, катастрофически не хватает 1900р. для оплаты серверов за Октябрь (всвязи с блокировками трафик упал в 3 раза), 1-2р., выручайте.
  

Мад / Mud (Джефф Николс / Jeff Nichols) [ 2012 , США , драма , BDRip 720p ] MVO pb.wtf

Мад через торрент pb.wtf

Размер: 4.82 GB | Добавлен: 6 лет 4 мес. назад | Торрент скачан:316 раз
Скачать  

28-07-2013 09:51 Мад Скачать торрент  

Мад / Mud


  • Год выпуска:2012
  • Страна:США
  • Жанр:драма
  • Продолжительность: 02:10:40
  • Перевод:Любительское (многоголосое) [Ирина Грачева, Александра Ларионова, Kerob, viRys]

  • Субтитры: Нет
    • Режиссер:Джефф Николс / Jeff Nichols

  • В ролях:Мэттью МакКонахи (Mud), Тай Шеридан (Ellis), Сэм Шепард (Tom Blankenship), Риз Уизерспун (Juniper), Джейкоб Лофленд (Neckbone), Сара Полсон (Mary Lee), Рэй МакКиннон (Senior), Майкл Шеннон (Galen), Пол Спаркс (Carver), Джо Дон Бейкер (King), Джонни Чик (Kyle), Бонни Стардивант (May Pearl)
    • Описание:
      Это история о двух мальчиках 14 лет, Эллисе и Некбоуне, которые случайно встречают во время одной из своих прогулок человека, прячущегося на острове посреди Миссисипи. Его зовут Мад: выбитый зуб, татуировка змеи на руке, пистолет и «счастливая» рубашка. А еще Мад верит в любовь - это как раз то, что нужно Эллису, чтобы забыть о напряженной обстановке в семье. Вскоре они начинают вместе чинить лодку, на которой Мад планирует покинуть остров. Однако мальчики не в состоянии понять, где правда, а где ложь в словах Мада. Действительно ли он убил человека и теперь его преследует правосудие и охотники за вознаграждением? И кто эта таинственная девушка, прибывшая в их маленький городок в штате Арканзас?

  • Рейтинг
    kinopoisk.ru: 7.804 (105)
    imdb.com: 7.90 (7 894)
    MPAA: PG-13 - Детям до 13 лет просмотр не желателен
    • Качество:BDRip 720p
    • Формат:MKV
    • Видео кодек:AVC
    • Аудио кодек: DTS /AC3
    • Видео: AVC, 1280x544 (2.35:1), 3215 kbps, 23,976 fps, 0,193 bpp
    • Аудио №1: русский / AC3 / 5.1 / 48 kHz / 448 kbps / 16 bit ||
    • Аудио №2: английский / DTS / 5.1 / 48 kHz / 1510 kbps / 24 bit

    General
    Unique ID : 183080763908814105707121267038060259601 (0x89BC129254A117E48E126063AD57A911)
    Complete name : D:ТорентыMad.2012.L.BDRip.720p.mkv
    Format : Matroska
    Format version : Version 2
    File size : 4.82 GiB
    Duration : 2h 10mn
    Overall bit rate : 5 279 Kbps
    Encoded date : UTC 2013-07-27 15:23:47
    Writing application : mkvmerge v5.6.0 ('Kenya Kane') built on May 27 2012 16:44:04
    Writing library : libebml v1.2.3 + libmatroska v1.3.0

    Video
    ID : 1
    Format : AVC
    Format/Info : Advanced Video Codec
    Format profile : High@L4.1
    Format settings, CABAC : Yes
    Format settings, ReFrames : 12 frames
    Muxing mode : Header stripping
    Codec ID : V_MPEG4/ISO/AVC
    Duration : 2h 10mn
    Bit rate : 3 216 Kbps
    Width : 1 280 pixels
    Height : 544 pixels
    Display aspect ratio : 2.35:1
    Frame rate : 23.976 fps
    Color space : YUV
    Chroma subsampling : 4:2:0
    Bit depth : 8 bits
    Scan type : Progressive
    Bits/(Pixel*Frame) : 0.193
    Stream size : 2.94 GiB (61%)
    Writing library : x264 core 133 r2334+704+50 a7549b7 tMod [8-bit@4:2:0 X86_64]
    Encoding settings : cabac=1 / ref=12 / deblock=1:-3:-3 / analyse=0x3:0x113 / me=umh / subme=10 / psy=1 / fade_compensate=0.00 / psy_rd=1.00:0.00 / mixed_ref=1 / me_range=32 / chroma_me=1 / trellis=2 / 8x8dct=1 / cqm=0 / deadzone=21,11 / fast_pskip=1 / chroma_qp_offset=-2 / threads=64 / lookahead_threads=4 / sliced_threads=0 / nr=0 / decimate=1 / interlaced=0 / bluray_compat=0 / constrained_intra=0 / fgo=0 / bframes=8 / b_pyramid=2 / b_adapt=2 / b_bias=0 / direct=3 / weightb=1 / open_gop=0 / weightp=2 / keyint=240 / keyint_min=23 / scenecut=40 / intra_refresh=0 / rc_lookahead=50 / rc=crf / mbtree=1 / crf=18.0000 / qcomp=0.70 / qpmin=0 / qpmax=69 / qpstep=4 / ip_ratio=1.40 / aq=4:0.90 / aq-sensitivity=10.00 / aq-factor=1.00:1.00:1.00 / aq2=0 / aq3=0
    Language : English
    Default : Yes
    Forced : No

    Audio #1
    ID : 2
    Format : AC-3
    Format/Info : Audio Coding 3
    Mode extension : CM (complete main)
    Muxing mode : Header stripping
    Codec ID : A_AC3
    Duration : 2h 10mn
    Bit rate mode : Constant
    Bit rate : 448 Kbps
    Channel(s) : 6 channels
    Channel positions : Front: L C R, Side: L R, LFE
    Sampling rate : 48.0 KHz
    Bit depth : 16 bits
    Compression mode : Lossy
    Stream size : 419 MiB (8%)
    Language : Russian
    Default : Yes
    Forced : Yes

    Audio #2
    ID : 3
    Format : DTS
    Format/Info : Digital Theater Systems
    Muxing mode : Header stripping
    Codec ID : A_DTS
    Duration : 2h 10mn
    Bit rate mode : Constant
    Bit rate : 1 510 Kbps
    Channel(s) : 6 channels
    Channel positions : Front: L C R, Side: L R, LFE
    Sampling rate : 48.0 KHz
    Bit depth : 24 bits
    Compression mode : Lossy
    Stream size : 1.38 GiB (29%)
    Language : English
    Default : No
    Forced : No

    Text #1
    ID : 4
    Format : UTF-8
    Codec ID : S_TEXT/UTF8
    Codec ID/Info : UTF-8 Plain Text
    Language : English
    Default : No
    Forced : No

    Text #2
    ID : 5
    Format : VobSub
    Muxing mode : zlib
    Codec ID : S_VOBSUB
    Codec ID/Info : The same subtitle format used on DVDs
    Language : Spanish
    Default : No
    Forced : No

    Menu
    00:00:00.000 : en:00:00:00.000
    00:07:59.187 : en:00:07:59.187
    00:17:06.651 : en:00:17:06.651
    00:24:48.987 : en:00:24:48.987
    00:32:16.476 : en:00:32:16.476
    00:39:46.175 : en:00:39:46.175
    00:52:01.952 : en:00:52:01.952
    00:57:58.308 : en:00:57:58.308
    01:06:18.892 : en:01:06:18.892
    01:17:45.286 : en:01:17:45.286
    01:24:48.959 : en:01:24:48.959
    01:32:28.501 : en:01:32:28.501
    01:42:04.577 : en:01:42:04.577
    01:50:34.378 : en:01:50:34.378
    01:58:59.257 : en:01:58:59.257
    02:07:01.447 : en:02:07:01.447

    © Оформление by Vetalpb.wtf



  • Скачать Мад через торрент http://i1.imageban.ru/out/2013/07/28/b0be2893b1c88edb9cdc5d4b94e9ea5b.jpg Скачать фильм Мад через торрент бесплантно в хорошем качестве Описание:Это история о двух мальчиках 14 лет, Эллисе и Некбоуне, которые случайно встречают во время одной из своих прогулок человека, ... 9.8 10 9
    Info! Золотая раздача, скачанное не засчитывается.
    Торрент: Зарегистрирован [2013-07-28 09:51] · скачан: 316 раз
    Статус: √ проверено
    Размер: 4.82 GB
    Как cкачать? Как скачать Мад через торрент | qTorrent

    % Раздел Тема Автор DL S | L
    T Фильмы (мультфильмы) cо спонсором показа (Новинки AVI/MKV) [ 2.1 GB ] Ферма «Мадбаунд» / Mudbound [2017 военный WEBRip 720p] MVO [Jaskier] bober100 Скачать
    1 | 0
    T Фильмы (мультфильмы) cо спонсором показа (Новинки AVI/MKV) [ 3.29 GB ] Ферма «Мадбаунд» / Mudbound [2017 военный WEBRip 1080p] MVO [Jaskier] bober100 Скачать
    1 | 0
    T Фильмы (мультфильмы) cо спонсором показа (Новинки AVI/MKV) [ 1.45 GB ] Ферма «Мадбаунд» / Mudbound [2017 военный WEBRip] MVO [Jaskier] bober100 Скачать
    1 | 0

    28-11-2019 20:33  

    Отключить всю рекламу на сайте


      Дорогой пользователь! Огромная просьба, поблагодарите релизера, оцените раздачу и оставьте свои комментарий, если Вы скачали Мад через торрент бесплатно! Внесите свою лепту в развитие PiratBit!
      Комментировать посты могут только пользователи прошедшие не сложную регистрацию
      Показать сообщения:    

      Мад через торрент
      Скачать бесплатно Мад
      Мад скачать торрент
      Мад смотреть онлайн
      Cкачать фильм Мад бесплатно
      Мад скачать торрент в хорошем качестве
      Мад смотреть онлайн бесплатно в хорошем качестве


      Вы не можете начинать темы
      Вы не можете отвечать на сообщения
      Вы не можете редактировать свои сообщения
      Вы не можете удалять свои сообщения
      Вы не можете голосовать в опросах
      Вы не можете прикреплять файлы к сообщениям
      Вы можете скачивать файлы