Ссылка на приватное зеркало нашего сайта всего за 1$. Внимание количество ограничено!!!

2 сезон

iTunes

1 сезон

1

2 сезон

2 сезон

iTunes

1 сезон

RePack

30

Ultimate

ВАЖНО

ИГРА 18+

pack

RePack

MK11
pack

Забери бонус

RePack

jed

!!Акция!!

Alien_Rage

RePack

fifa19

RePack

Assassins Creed: Odyssey

RePack

NEED FOR SPEED™ PAYBACK

4 сезон

9 сезон

Бесстыжие 9 сезон

Все сериалы

все сериалы на PB.wtf

RePack

FAR CRY 5
  

Эффект бабочки / The Butterfly Effect (Эрик Бресс, Дж. Макки Грубер / Eric Bresse, J. Mackey Gruber) [2004 г., фантастика, драма, BDRemux 1080p] DUB+VO[Театральная версия / Theatrical Cut] pb.wtf

Эффект бабочки через торрент pb.wtf

Размер: 22.71 GB | Добавлен: 4 года 9 мес. назад | Торрент скачан:90 раз
Скачать  

28-07-2013 11:19 Эффект бабочки Скачать торрент  


Эффект бабочки / The Butterfly Effect

«Изменишь одно, изменится все»

  • Год выпуска:2004
  • Страна:США, Канада
  • Жанр:фантастика, триллер
  • Продолжительность: 01:53:37
  • Перевод:Профессиональный (полное дублирование)+профессиональный (однологосый закадровый)

  • Субтитры:русские, украинские, английские
    • Режиссер:Эрик Бресс / Eric Bress, Дж. Макки Грубер / J. Mackye Gruber

  • В ролях:Эштон Кутчер (Evan), Эми Смарт (Kayleigh), Элден Хенсон (Lenny), Уильям Ли Скотт (Tommy), Джон Патрик Амедори (Evan at 13), Кевин Шмидт (Lenny at 13), Ирен Горовая (Kayleigh at 13), Джесси Джеймс (Tommy at 13), Мелора Уолтерс (Andrea), Эрик Столц (Mr. Miller), Каллум Кит Ренни (Jason), Лорена Гэйл (Mrs. Boswell)
    • Описание:
      Мальчик Эван перенял от своего отца-психопата, ныне запертого в доме для умалишённых, странную болезнь - он не помнит некоторых эпизодов своей жизни, причем в эти моменты происходили довольно странные, а то и ужасные, события. Возмужав и поступив в колледж, Эван делает удивительное открытие. Читая дневники, которые он писал в детстве по совету врача, Эван может возвращаться в детство и своими действиями изменять будущее.

  • Рейтинг
    kinopoisk.ru: 8.326 (162 836)
    imdb.com: 7.70 (233 854)
    MPAA: R - Лицам до 17 лет обязательно присутствие взрослого

    • Качество:BDRemux 1080p
    • Формат:MKV
    • Видео кодек: AVC
    • Аудио кодек: DTS /AC3
    • Видео: AVC, 1920x1080 (16:9), 24351 kbps, 23,976 fps, 0,490 bpp
    • Аудио №1: русский / AC3 / 5.1 / 48 kHz / 384 kbps / 16 bit || |Дубляж, R5|
    • Аудио №2: русский / DTS-HD / 5.1 / 48 kHz / 1560 kbps / 16 bit || |Одноголосый, А.Дасевич|
    • Аудио №3: английский / DTS-HD / 5.1 / 48 kHz / 1560 kbps / 16 bit
    • Аудио №4: английский / AC3 / 2.0 / 48 kHz / 192 kbps / 16 bit |Комментарии, английский|

    General
    Unique ID : 213388156403190342303590615162493813419 (0xA089106394204317AB88F4CCAE8342AB)
    Complete name : D:ТорентыThe.Butterfly.Effect.2004.TC.BDRemux.2xRus.Eng.HDCLUB.mkv
    Format : Matroska
    Format version : Version 2
    File size : 22.7 GiB
    Duration : 1h 53mn
    Overall bit rate mode : Variable
    Overall bit rate : 28.6 Mbps
    Movie name : The Butterfly Effect (2004) – Release for HDCLUB
    Encoded date : UTC 2011-12-27 20:54:52
    Writing application : mkvmerge v5.1.0 ('And so it goes') built on Nov 28 2011 23:58:28
    Writing library : libebml v1.2.3 + libmatroska v1.3.0

    Video
    ID : 1
    Format : AVC
    Format/Info : Advanced Video Codec
    Format profile : High@L4.1
    Format settings, CABAC : Yes
    Format settings, ReFrames : 4 frames
    Muxing mode : Container profile=Unknown@0.0
    Codec ID : V_MPEG4/ISO/AVC
    Duration : 1h 53mn
    Bit rate mode : Variable
    Bit rate : 24.4 Mbps
    Maximum bit rate : 35.0 Mbps
    Width : 1 920 pixels
    Height : 1 080 pixels
    Display aspect ratio : 16:9
    Frame rate : 23.976 fps
    Standard : NTSC
    Color space : YUV
    Chroma subsampling : 4:2:0
    Bit depth : 8 bits
    Scan type : Progressive
    Bits/(Pixel*Frame) : 0.490
    Stream size : 19.3 GiB (85%)
    Title : The Butterfly Effect (2004) – Release for HDCLUB
    Language : English
    Default : Yes
    Forced : No
    Color primaries : BT.709-5, BT.1361, IEC 61966-2-4, SMPTE RP177
    Transfer characteristics : BT.709-5, BT.1361
    Matrix coefficients : BT.709-5, BT.1361, IEC 61966-2-4 709, SMPTE RP177

    Audio #1
    ID : 2
    Format : AC-3
    Format/Info : Audio Coding 3
    Mode extension : CM (complete main)
    Codec ID : A_AC3
    Duration : 1h 53mn
    Bit rate mode : Constant
    Bit rate : 384 Kbps
    Channel(s) : 6 channels
    Channel positions : Front: L C R, Side: L R, LFE
    Sampling rate : 48.0 KHz
    Bit depth : 16 bits
    Compression mode : Lossy
    Stream size : 312 MiB (1%)
    Title : AC3 5.1 @ 384 kbps – Дубляж (R5)
    Language : Russian
    Default : Yes
    Forced : No

    Audio #2
    ID : 3
    Format : DTS
    Format/Info : Digital Theater Systems
    Format profile : MA / Core
    Codec ID : A_DTS
    Duration : 1h 53mn
    Bit rate mode : Variable
    Bit rate : 1 561 Kbps / 1 510 Kbps
    Channel(s) : 6 channels
    Channel positions : Front: L C R, Side: L R, LFE
    Sampling rate : 48.0 KHz
    Bit depth : 16 bits
    Compression mode : Lossless / Lossy
    Title : DTS-HD MA 5.1 @ 2058 kbps – Одноголосый закадровый (А.Дасевич)
    Language : Russian
    Default : No
    Forced : No

    Audio #3
    ID : 4
    Format : DTS
    Format/Info : Digital Theater Systems
    Format profile : MA / Core
    Codec ID : A_DTS
    Duration : 1h 53mn
    Bit rate mode : Variable
    Bit rate : 1 561 Kbps / 1 510 Kbps
    Channel(s) : 6 channels
    Channel positions : Front: L C R, Side: L R, LFE
    Sampling rate : 48.0 KHz
    Bit depth : 16 bits
    Compression mode : Lossless / Lossy
    Title : DTS-HD MA 5.1 @ 2025 kbps
    Language : English
    Default : No
    Forced : No

    Audio #4
    ID : 5
    Format : AC-3
    Format/Info : Audio Coding 3
    Mode extension : CM (complete main)
    Codec ID : A_AC3
    Duration : 1h 53mn
    Bit rate mode : Constant
    Bit rate : 192 Kbps
    Channel(s) : 2 channels
    Channel positions : Front: L R
    Sampling rate : 48.0 KHz
    Bit depth : 16 bits
    Compression mode : Lossy
    Stream size : 156 MiB (1%)
    Title : AC3 2.0 @ 192 kbps – Commentary
    Language : English
    Default : No
    Forced : No

    Text #1
    ID : 6
    Format : UTF-8
    Codec ID : S_TEXT/UTF8
    Codec ID/Info : UTF-8 Plain Text
    Language : Russian
    Default : No
    Forced : No

    Text #2
    ID : 7
    Format : UTF-8
    Codec ID : S_TEXT/UTF8
    Codec ID/Info : UTF-8 Plain Text
    Language : Ukrainian
    Default : No
    Forced : No

    Text #3
    ID : 8
    Format : UTF-8
    Codec ID : S_TEXT/UTF8
    Codec ID/Info : UTF-8 Plain Text
    Language : English
    Default : No
    Forced : No

    Menu
    00:00:00.000 : en:You have to see this
    00:06:28.597 : en:Secrets
    00:11:16.676 : en:Blackouts
    00:16:50.009 : en:Tommy's revenge
    00:25:07.423 : en:Memory research
    00:31:40.482 : en:Remembering
    00:39:27.448 : en:Kaylee
    00:46:14.563 : en:Rewind: Kaylee
    00:57:49.966 : en:A new life
    01:04:58.770 : en:Prisoner
    01:14:49.443 : en:Rewind: Lenny
    01:23:12.529 : en:You were happy once
    01:28:50.951 : en:Rewind: Evan
    01:37:17.040 : en:Destroy the blockbuster
    01:43:09.141 : en:Last attempt
    01:47:55.761 : en:End credits

    © Оформление by Vetalpb.wtf



  • Скачать Эффект бабочки через торрент http://i2.imageban.ru/out/2013/07/28/9fd9249f9a21ffa4011180cb259784b6.png Скачать фильм Эффект бабочки через торрент бесплантно в хорошем качестве Описание:Мальчик Эван перенял от своего отца-психопата, ныне запертого в доме для умалишённых, странную болезнь - он не помнит некоторых ... 10 10 14
    Торрент: Зарегистрирован [2016-02-08 14:51] · скачан: 90 раз
    Статус: √ проверено
    Размер: 22.71 GB
    Как cкачать? Как скачать Эффект бабочки через торрент | qTorrent

    % Раздел Тема Автор DL S | L
    Фильмы с авторской озвучкой [ 1.46 GB ] Эффект бабочки / The Butterfly Effect [2004 HDRip] [Director's Cut] [AVO] killermax2013 Скачать
    1 | 0
    Фильмы [HD 720p, 1080p] (Хороший звук DUB, MVO) [ 6.48 GB ] Эффект бабочки. Трилогия / The Butterfly Effect. Trilogy [2004-2009 BDRip 720p] .::Sergey::. Скачать
    1 | 0
    Фильмы [HD 720p, 1080p] (Хороший звук DUB, MVO) [ 14.59 GB ] Эффект бабочки [Театральная версия] / The Butterfly Effect [Theatrical Cut] [2004 BDRip 1080p ] Артронах Скачать
    1 | 0
    Порно фильмы с сюжетом [ 1.36 GB ] This Ain't Star Trek XXX 2: The Butterfly Effect / Не звёздный путь XXX 2: Эффект Бабочки [2009 Feature Parody DVDRip] Shmel Скачать
    1 | 0
    Сборники на DVD и Сиквелы [DVDrip, WEB-DLRip, HDrip, BDRip] [ 6.48 GB ] Эффект Бабочки: Коллекция / The Butterfly Effect: Collection [2004-2009 BDRip] Trust Скачать
    1 | 0
    Фильмы 2001-2005 [ 743 MB ] Эффект бабочки / The Butterfly Effect [2004 BDRip DUB ] Vampir7 Скачать
    1 | 1
    Сборники на DVD и Сиквелы [DVDrip, WEB-DLRip, HDrip, BDRip] [ 2.18 GB ] Эффект бабочки: Трилогия / The Butterfly Effect: Trilogy [2004 - 2009 HDRip] yrgent9032 Скачать
    1 | 0

    28-11-2019 20:33  

    Отключить всю рекламу на сайте

    28-07-2013 15:17 Эффект бабочки Скачать торрент  

    Vetаl Спасибо класний фільм!pb.wtf



    28-07-2013 19:28 Эффект бабочки Скачать торрент  

    slavik97b
    Надеюсь, буду смотреть.pb.wtf



    28-07-2013 21:19 Эффект бабочки Скачать торрент  

    Шикарный фильм... Ничего не скажешь.pb.wtf



    30-07-2013 19:59 Эффект бабочки Скачать торрент  

    Фильм супер, посмотрел с удовольствием.Кто смотрел 2 других части стоит их глянуть или лучше не портить впечатления? я рейтинг глянул он мизерный по сравнению с этой частью.pb.wtf



    22-11-2013 14:50 Эффект бабочки Скачать торрент  

    Раздайте ребят,пожалуйста.pb.wtf



    08-02-2016 15:04 Эффект бабочки Скачать торрент  

    супер фильм.вторые,третьи части не смотрите,что бы не портить впечатления!pb.wtf



      Дорогой пользователь! Огромная просьба, поблагодарите релизера, оцените раздачу и оставьте свои комментарий, если Вы скачали Эффект бабочки через торрент бесплатно! Внесите свою лепту в развитие PiratBit!
      Комментировать посты могут только пользователи прошедшие не сложную регистрацию
      Показать сообщения:    

      Эффект бабочки через торрент
      Скачать бесплатно Эффект бабочки
      Эффект бабочки скачать торрент
      Эффект бабочки смотреть онлайн
      Cкачать фильм Эффект бабочки бесплатно
      Эффект бабочки скачать торрент в хорошем качестве
      Эффект бабочки смотреть онлайн бесплатно в хорошем качестве


      Вы не можете начинать темы
      Вы не можете отвечать на сообщения
      Вы не можете редактировать свои сообщения
      Вы не можете удалять свои сообщения
      Вы не можете голосовать в опросах
      Вы не можете прикреплять файлы к сообщениям
      Вы можете скачивать файлы