Ссылка на приватное зеркало нашего сайта всего за 1$. Внимание количество ограничено!!!

2 сезон

iTunes

1 сезон

1

iTunes

iTunes

iTunes

1 сезон

RePack

30

ИГРА 18+

pack

ВАЖНО

!!Акция!!

Alien_RageХит недели

RePack

MK11
pack

Забери бонус

RePack

jed

!!Акция!!

Alien_Rage

RePack

fifa19

RePack

Assassins Creed: Odyssey

RePack

NEED FOR SPEED™ PAYBACK

4 сезон

9 сезон

Бесстыжие 9 сезон

Все сериалы

все сериалы на PB.wtf

RePack

FAR CRY 5
  

Марафон (Карен Оганесян) [ 2013 , Россия , комедия , DVDRip ] pb.wtf

Марафон через торрент pb.wtf

Размер: 703 MB | Добавлен: 7 лет 2 мес. назад | Торрент скачан:848 раз
Скачать  

28-07-2013 19:34 Марафон Скачать торрент  

Марафон

«Пока есть цель, жизнь продолжается»

  • Год выпуска:2013
  • Страна:Россия
  • Жанр:комедия
  • Продолжительность: 01:35:21
  • Перевод:Не требуется

  • Субтитры: Нет
    • Режиссер:Карен Оганесян

  • В ролях:Михаил Пореченков (Толик), Екатерина Васильева (Анна), Юлия Пересильд, Анатолий Белый, Игорь Савочкин, Ольга Волкова, Сергей Газаров (Жорик), Анна Михалкова, Мария Аронова, Ирина Пивоварова
    • Описание:
      Жизнь Толика не удалась, спортивная карьера не состоялась, жена ушла к другому. Неуспешный, нелюбимый, безнадежный он потерял веру в себя. Все меняет случайная встреча со странной незнакомкой Анной Ильиничной, которая предлагает ему принять участие в необычном марафоне в далекой Америке...

  • Рейтинг
    kinopoisk.ru: 6.344 (181)
    imdb.com: 6.50 (6)
    • Качество:DVDRip
    • Формат:AVI
    • Видео кодек: XviD
    • Аудио кодек: MP3
    • Видео: XviD, 640x336 (1.905), 893 kbps, 25 fps, 0,166 bpp
    • Аудио: MP3 / 2.0 / 48 kHz / 128 kbps /

    General
    Complete name : D:ТорентыMarafon.2013.O.DVDRip.700MB.avi
    Format : AVI
    Format/Info : Audio Video Interleave
    File size : 703 MiB
    Duration : 1h 35mn
    Overall bit rate : 1 031 Kbps
    Writing application : VirtualDubMod 1.5.10.3 | www.virtualdub-fr.org || (build 2550/release)
    Writing library : VirtualDubMod build 2550/release

    Video
    ID : 0
    Format : MPEG-4 Visual
    Format profile : Advanced Simple@L5
    Format settings, BVOP : 2
    Format settings, QPel : No
    Format settings, GMC : No warppoints
    Format settings, Matrix : Default (MPEG)
    Codec ID : XVID
    Codec ID/Hint : XviD
    Duration : 1h 35mn
    Bit rate : 893 Kbps
    Width : 640 pixels
    Height : 336 pixels
    Display aspect ratio : 1.905
    Frame rate : 25.000 fps
    Color space : YUV
    Chroma subsampling : 4:2:0
    Bit depth : 8 bits
    Scan type : Progressive
    Compression mode : Lossy
    Bits/(Pixel*Frame) : 0.166
    Stream size : 609 MiB (87%)
    Writing library : XviD 1.2.1 (UTC 2008-12-04)

    Audio
    ID : 1
    Format : MPEG Audio
    Format version : Version 1
    Format profile : Layer 3
    Codec ID : 55
    Codec ID/Hint : MP3
    Duration : 1h 35mn
    Bit rate mode : Constant
    Bit rate : 128 Kbps
    Channel(s) : 2 channels
    Sampling rate : 48.0 KHz
    Compression mode : Lossy
    Stream size : 87.3 MiB (12%)
    Alignment : Aligned on interleaves
    Interleave, duration : 40 ms (1.00 video frame)
    Interleave, preload duration : 504 ms
    Writing library : LAME3.99r
    Encoding settings : -m s -V 4 -q 2 -lowpass 17 -b 128

    © Оформление by Vetalpb.wtf



  • Скачать Марафон через торрент http://i6.imageban.ru/out/2013/07/28/804322c198cdba0f75644f8671c6eee2.png Скачать фильм Марафон через торрент бесплантно в хорошем качестве Описание:Жизнь Толика не удалась, спортивная карьера не состоялась, жена ушла к другому. Неуспешный, нелюбимый, безнадежный он потерял веру ... 9.5 10 18
    Info! Золотая раздача, скачанное не засчитывается.
    Торрент: Зарегистрирован [2013-07-28 19:34] · скачан: 848 раз
    Статус: √ проверено
    Размер: 703 MB
    Как cкачать? Как скачать Марафон через торрент | qTorrent

    % Раздел Тема Автор DL S | L
    Наши фильмы (HD, WEB-DL 720p, 1080p) [ 3.14 GB ] Марафон желаний [2020 WEB-DL 1080p] bober100 Скачать
    2 | 0
    Наши фильмы (HD, WEB-DL 720p, 1080p) [ 2.31 GB ] Марафон желаний [2020 WEB-DLRip 720p] - ExKinoRay Enigma2010 Скачать
    63 | 1
    Наши новые фильмы 2018-2019 [ 1.46 GB ] Марафон желаний [2020 WEB-DLRip-AVC] bober100 Скачать
    5 | 0
    Наши новые фильмы 2018-2019 [ 744 MB ] Марафон желаний [2020 WEB-DLRip] bober100 Скачать
    3 | 0
    Наши новые фильмы 2018-2019 [ 1.46 GB ] Марафон желаний [2020 WEB-DLRip] bober100 Скачать
    1 | 0
    Кино СССР [ 6.43 GB ] Осенний марафон [1979 HDTVRip 1080р от KORSAR] filbi1976 Скачать
    1 | 0
    Сборники отечественного шансона [ 671 MB ] VA - Зимний марафон 2017 / MP3 / 256 kbps / Шансон bober100 Скачать
    1 | 0

    28-11-2019 20:33  

    Отключить всю рекламу на сайте

    01-08-2013 19:54 Марафон Скачать торрент  

    Нудятина! Меня хватило на пол фильма! :(pb.wtf



    04-08-2013 12:43 Марафон Скачать торрент  

    Graf_Stroganov писал(а):

    Нудятина! Меня хватило на пол фильма! :(

    Сочувствую...фильм-обалденный!pb.wtf



    10-08-2013 13:17 Марафон Скачать торрент  

    Спасибо! Отличній фильм.pb.wtf



    08-09-2013 09:20 Марафон Скачать торрент  

    Vetаl писал(а):

    Марафон (Карен Оганесян) [ 2013 , Россия , комедия , DVDRip ]

    pb.wtf



      Дорогой пользователь! Огромная просьба, поблагодарите релизера, оцените раздачу и оставьте свои комментарий, если Вы скачали Марафон через торрент бесплатно! Внесите свою лепту в развитие PiratBit!
      Комментировать посты могут только пользователи прошедшие не сложную регистрацию
      Показать сообщения:    

      Марафон через торрент
      Скачать бесплатно Марафон
      Марафон скачать торрент
      Марафон смотреть онлайн
      Cкачать фильм Марафон бесплатно
      Марафон скачать торрент в хорошем качестве
      Марафон смотреть онлайн бесплатно в хорошем качестве


      Вы не можете начинать темы
      Вы не можете отвечать на сообщения
      Вы не можете редактировать свои сообщения
      Вы не можете удалять свои сообщения
      Вы не можете голосовать в опросах
      Вы не можете прикреплять файлы к сообщениям
      Вы можете скачивать файлы