Ссылка на приватное зеркало нашего сайта всего за 1$. Внимание количество ограничено!!!

2 сезон

iTunes

1 сезон

1

iTunes

iTunes

iTunes

1 сезон

RePack

30

ИГРА 18+

pack

ВАЖНО

!!Акция!!

Alien_RageХит недели

RePack

MK11
pack

Забери бонус

RePack

jed

!!Акция!!

Alien_Rage

RePack

fifa19

RePack

Assassins Creed: Odyssey

RePack

NEED FOR SPEED™ PAYBACK

4 сезон

9 сезон

Бесстыжие 9 сезон

Все сериалы

все сериалы на PB.wtf

RePack

FAR CRY 5
  

Мистер и миссис Смит / Mr. & Mrs. Smith (Даг Лайман) [2005 г., боевик, комедия, криминал, BDRip 1080p, Дубляж] pb.wtf

Мистер и миссис Смит через торрент pb.wtf

Размер: 11.77 GB | Добавлен: 7 лет 2 мес. назад | Торрент скачан:24 раза
Скачать  

29-07-2013 11:27 Мистер и миссис Смит Скачать торрент  

Мистер и миссис Смит / Mr. & Mrs. Smith
Год выпуска: 2005
Страна: США
Жанр: боевик, комедия, криминал
Продолжительность: 01:59:58
Перевод: Дубляж
Субтитры: Есть

Режиссер: Даг Лайман
Продюссер: Лукас Фостер, Акива Голдсман, Эрик МакЛеод
Сценарий: Саймон Кинберг

Бюджет: $110 000 000
Премьера в мире: 7 июня 2005



В ролях: Брэд Питт, Анджелина Джоли, Винс Вон, Адам Броди, Керри Вашингтон, Кейт Дэвид, Крис Вейц, Рэйчел Хантли, Мишель Монахэн, Стефани Марч, Дженнифер Моррисон, Тереза Баррера, Перри Ривз, Мелани Толберт, Джерри Т. Адамс, Элайджа Александр, Ганс Ф. Александр, Лорин Альварез, Бурк Армстронг, Рон Боттитта, Эрл Х. Баллок

Описание: Джон и Джейн женаты не так долго, но уже утомлены своим браком. Им кажется, что они знают друг о друге все. Но есть кое-что, что каждый предпочитает держать при себе: оба они — наемные убийцы, которые тайно путешествуют по миру, выполняя опасные миссии. Эти отдельные тайные приключения становятся их общей судьбой в тот момент, когда Джейн получает заказ на Джона, а Джон на Джейн.

Качество: BDRip 1080p
Формат: MKV
Видео кодек: H.264
Аудио кодек: DTS, AC3
Видео: 1920x816, H264, 23.976 fps, ~ 10280 kbps
Аудио#1: Русский DTS 5.1 - 1536 kb/s (Многоголосый)
Аудио#2: Русский DD 5.1 - 448 kb/s (Дубляж)
Аудио#3: Английский DTS 5.1 - 1536 kb/s (Оригинал)
Аудио#4: Английский AC3 5.1 - 448 kb/s (Комментарии №1)
Аудио#5: Английский DTS 5.1 - 1536 kb/s (Комментарии №2)
Аудио#6: Английский AC3 5.1 - 448 kb/s (Комментарии №3)




бщее
Уникальный идентификатор : 221805798723937184183560645666071677805 (0xA6DE3E32A257EC989EEEC622F78C8B6D)
Полное имя : J:Mister & Missis Smit.2005.BDRip-1080p (театральная версия).mkv
Формат : Matroska
Версия формата : Version 1
Размер файла : 11,8 Гбайт
Продолжительность : 1 ч. 59 м.
Общий поток : 14,0 Мбит/сек
Дата кодирования : UTC 2008-03-27 23:17:41
Программа кодирования : mkvmerge v2.1.0 ('Another Place To Fall') built on Aug 19 2007 13:40:07
Библиотека кодирования : libebml v0.7.7 + libmatroska v0.8.1
Attachment : Yes / Yes / Yes

Видео
Идентификатор : 1
Формат : AVC
Формат/Информация : Advanced Video Codec
Профиль формата : High@L4.1
Параметр CABAC формата : Да
Параметр ReFrames формата : 5 кадров
Параметр GOP формата : N=1
Идентификатор кодека : V_MPEG4/ISO/AVC
Продолжительность : 1 ч. 59 м.
Битрейт : 10,3 Мбит/сек
Ширина : 1920 пикселей
Высота : 816 пикселей
Соотношение сторон : 2,35:1
Режим частоты кадров : Постоянный
Частота кадров : 23,976 кадра/сек
Цветовое пространство : YUV
Субдискретизация насыщенности : 4:2:0
Битовая глубина : 8 бит
Тип развёртки : Прогрессивная
Бит/(Пиксели*Кадры) : 0.274
Размер потока : 8,39 Гбайт (71%)
Заголовок : 1920x816 @ 10280 Kbps
Библиотека кодирования : x264 core 58 r798M 17e5dac
Настройки программы : cabac=1 / ref=5 / deblock=1:-3:-3 / analyse=0x3:0x133 / me=umh / subme=7 / me-prepass=0 / brdo=1 / mixed_ref=1 / me_range=16 / chroma_me=1 / trellis=0 / 8x8dct=1 / cqm=2 / deadzone=6,4 / chroma_qp_offset=0 / threads=6 / nr=0 / decimate=1 / mbaff=0 / bframes=3 / b_pyramid=1 / b_adapt=1 / b_bias=0 / direct=1 / wpredb=1 / bime=1 / keyint=250 / keyint_min=25 / scenecut=40(pre) / rc=2pass / bitrate=10280 / ratetol=1.0 / rceq='blurCplx^(1-qComp)' / qcomp=1.00 / qpmin=10 / qpmax=51 / qpstep=4 / cplxblur=20.0 / qblur=0.5 / ip_ratio=1.40 / pb_ratio=1.30 / aq=1:0.5:13.0
Язык : English
Default : Да
Forced : Нет

Аудио #1
Идентификатор : 2
Формат : DTS
Формат/Информация : Digital Theater Systems
Режим : 16
Параметр Endianness формата : Big
Идентификатор кодека : A_DTS
Продолжительность : 1 ч. 59 м.
Вид битрейта : Постоянный
Битрейт : 1509 Кбит/сек
Каналы : 6 каналов
Расположение каналов : Front: L C R, Side: L R, LFE
Частота : 48,0 КГц
Битовая глубина : 24 бит
Метод сжатия : С потерями
Размер потока : 1,26 Гбайт (11%)
Заголовок : DTS 5.1
Язык : English
Default : Да
Forced : Нет

Аудио #2
Идентификатор : 3
Формат : AC-3
Формат/Информация : Audio Coding 3
Расширение режима : CM (complete main)
Параметр Endianness формата : Big
Идентификатор кодека : A_AC3
Продолжительность : 1 ч. 59 м.
Вид битрейта : Постоянный
Битрейт : 96,0 Кбит/сек
Каналы : 2 канала
Расположение каналов : Front: L R
Частота : 48,0 КГц
Битовая глубина : 16 бит
Метод сжатия : С потерями
Размер потока : 82,4 Мбайт (1%)
Заголовок : Director & Screenwriter Commentary AC3 2.0 @ 96 Kbps
Язык : English
Default : Нет
Forced : Нет

Аудио #3
Идентификатор : 4
Формат : AC-3
Формат/Информация : Audio Coding 3
Расширение режима : CM (complete main)
Параметр Endianness формата : Big
Идентификатор кодека : A_AC3
Продолжительность : 1 ч. 59 м.
Вид битрейта : Постоянный
Битрейт : 96,0 Кбит/сек
Каналы : 2 канала
Расположение каналов : Front: L R
Частота : 48,0 КГц
Битовая глубина : 16 бит
Метод сжатия : С потерями
Размер потока : 82,4 Мбайт (1%)
Заголовок : Producers Commentary AC3 2.0 @ 96 Kbps
Язык : English
Default : Нет
Forced : Нет

Аудио #4
Идентификатор : 5
Формат : AC-3
Формат/Информация : Audio Coding 3
Расширение режима : CM (complete main)
Параметр Endianness формата : Big
Идентификатор кодека : A_AC3
Продолжительность : 1 ч. 59 м.
Вид битрейта : Постоянный
Битрейт : 96,0 Кбит/сек
Каналы : 2 канала
Расположение каналов : Front: L R
Частота : 48,0 КГц
Битовая глубина : 16 бит
Метод сжатия : С потерями
Размер потока : 82,4 Мбайт (1%)
Заголовок : Technical Commentary AC3 2.0 @ 96 Kbps
Язык : English
Default : Нет
Forced : Нет

Аудио #5
Идентификатор : 15
Формат : DTS
Формат/Информация : Digital Theater Systems
Режим : 16
Параметр Endianness формата : Big
Идентификатор кодека : A_DTS
Продолжительность : 1 ч. 59 м.
Вид битрейта : Постоянный
Битрейт : 1510 Кбит/сек
Каналы : 6 каналов
Расположение каналов : Front: L C R, Side: L R, LFE
Частота : 48,0 КГц
Битовая глубина : 24 бит
Метод сжатия : С потерями
Размер потока : 1,27 Гбайт (11%)
Заголовок : DTS 5.1 (Mnogogolosiy) by MIF
Язык : Russian
Default : Нет
Forced : Нет

Аудио #6
Идентификатор : 16
Формат : AC-3
Формат/Информация : Audio Coding 3
Расширение режима : CM (complete main)
Параметр Endianness формата : Big
Идентификатор кодека : A_AC3
Продолжительность : 1 ч. 59 м.
Вид битрейта : Постоянный
Битрейт : 448 Кбит/сек
Каналы : 6 каналов
Расположение каналов : Front: L C R, Side: L R, LFE
Частота : 48,0 КГц
Битовая глубина : 16 бит
Метод сжатия : С потерями
Размер потока : 384 Мбайт (3%)
Заголовок : DD 5.1 (Dublyazh) by MIF
Язык : Russian
Default : Нет
Forced : Нет

Текст #1
Идентификатор : 6
Формат : ASS
Идентификатор кодека : S_TEXT/ASS
Идентификатор кодека/Информация : Advanced Sub Station Alpha
Метод сжатия : Без потерь
Язык : scr
Default : Нет
Forced : Нет

Текст #2
Идентификатор : 7
Формат : ASS
Идентификатор кодека : S_TEXT/ASS
Идентификатор кодека/Информация : Advanced Sub Station Alpha
Метод сжатия : Без потерь
Язык : Czech
Default : Нет
Forced : Нет

Текст #3
Идентификатор : 8
Формат : ASS
Идентификатор кодека : S_TEXT/ASS
Идентификатор кодека/Информация : Advanced Sub Station Alpha
Метод сжатия : Без потерь
Язык : English
Default : Да
Forced : Нет

Текст #4
Идентификатор : 9
Формат : ASS
Идентификатор кодека : S_TEXT/ASS
Идентификатор кодека/Информация : Advanced Sub Station Alpha
Метод сжатия : Без потерь
Язык : French
Default : Нет
Forced : Нет

Текст #5
Идентификатор : 10
Формат : ASS
Идентификатор кодека : S_TEXT/ASS
Идентификатор кодека/Информация : Advanced Sub Station Alpha
Метод сжатия : Без потерь
Язык : Hungarian
Default : Нет
Forced : Нет

Текст #6
Идентификатор : 11
Формат : ASS
Идентификатор кодека : S_TEXT/ASS
Идентификатор кодека/Информация : Advanced Sub Station Alpha
Метод сжатия : Без потерь
Язык : Polish
Default : Нет
Forced : Нет

Текст #7
Идентификатор : 12
Формат : ASS
Идентификатор кодека : S_TEXT/ASS
Идентификатор кодека/Информация : Advanced Sub Station Alpha
Метод сжатия : Без потерь
Язык : Romanian
Default : Нет
Forced : Нет

Текст #8
Идентификатор : 13
Формат : ASS
Идентификатор кодека : S_TEXT/ASS
Идентификатор кодека/Информация : Advanced Sub Station Alpha
Метод сжатия : Без потерь
Язык : Slovenian
Default : Нет
Forced : Нет

Текст #9
Идентификатор : 14
Формат : ASS
Идентификатор кодека : S_TEXT/ASS
Идентификатор кодека/Информация : Advanced Sub Station Alpha
Метод сжатия : Без потерь
Язык : Spanish
Default : Нет
Forced : Нет
pb.wtf



Скачать Мистер и миссис Смит через торрент http://firepic.org/images/2013-07/29/o3rz27v86zmg.jpg Скачать фильм Мистер и миссис Смит через торрент бесплантно в хорошем качестве Описание: Джон и Джейн женаты не так долго, но уже утомлены своим браком. Им кажется, что они знают друг о друге все. Но есть кое-что, что ... 10 10 4
Info! Золотая раздача, скачанное не засчитывается.
Торрент: Зарегистрирован [2013-07-29 11:27] · скачан: 24 раз
Статус: √ проверено
Размер: 11.77 GB
Как cкачать? Как скачать Мистер и миссис Смит через торрент | qTorrent

28-11-2019 20:33  

Отключить всю рекламу на сайте

    Дорогой пользователь! Огромная просьба, поблагодарите релизера, оцените раздачу и оставьте свои комментарий, если Вы скачали Мистер и миссис Смит через торрент бесплатно! Внесите свою лепту в развитие PiratBit!
    Комментировать посты могут только пользователи прошедшие не сложную регистрацию
    Показать сообщения:    

    Мистер и миссис Смит через торрент
    Скачать бесплатно Мистер и миссис Смит
    Мистер и миссис Смит скачать торрент
    Мистер и миссис Смит смотреть онлайн
    Cкачать фильм Мистер и миссис Смит бесплатно
    Мистер и миссис Смит скачать торрент в хорошем качестве
    Мистер и миссис Смит смотреть онлайн бесплатно в хорошем качестве


    Вы не можете начинать темы
    Вы не можете отвечать на сообщения
    Вы не можете редактировать свои сообщения
    Вы не можете удалять свои сообщения
    Вы не можете голосовать в опросах
    Вы не можете прикреплять файлы к сообщениям
    Вы можете скачивать файлы