1 сезон

1 сезон

iTunes

1

КиноПоиск HD

Кинопоиск HD

iTunes

13

1 сезон

RePack

30

Ultimate

ВАЖНО

ИГРА 18+

pack

RePack

MK11
pack

Легкие деньги

RePack

jed

RePack

fifa19

RePack

RDR2

RePack

NEED FOR SPEED™ PAYBACK

4 сезон

9 сезон

Бесстыжие 9 сезон

Все сериалы

все сериалы на PB.wtf

RePack

FAR CRY 5
  
Magnet ссылка

Кошки против собак / Cats & Dogs (Лоуренс Гутерман) [2001 г., приключения, семейный, комедия, сказка, HDRip, Дубляж] pb.wtf

Кошки против собак через торрент pb.wtf

Размер: 1.93 GB | Добавлен: 7 лет 8 мес. назад | Торрент скачан:31 раз
Скачать  

29-07-2013 13:49 Кошки против собак Скачать торрент  

Кошки против собак / Cats & Dogs
Год выпуска: 2001
Страна: США, Австралия
Жанр: приключения, семейный, комедия, сказка,
Продолжительность: 01:27:15
Перевод: Дубляж
Субтитры: русские,англ.

Режиссер: Лоуренс Гутерман
Продюссер: Крис Бендер, Брюс Берман, Кристофер ДеФариа
Сценарий: Джон Рекуа, Гленн Фикарра

Бюджет: $60 000 000
Премьера в мире: 23 июня 2001


http://www.kinopoisk.ru/film/3892/

В ролях: Джефф Голдблюм, Элизабет Перкинс, Александр Поллок, Мириам Маргулис, Тоби Магуайр, Алек Болдуин, Сьюзен Сарандон, Джо Пантольяно, Майкл Кларк Дункан, Чарлтон Хестон,

Описание: Они — хитры. Они — вороваты. Они начинают сверхсекретную войну на высшем технологическом уровне за Влacть над миром, и все — под нашим носом. Они кошки и собаки!

Посмотрите что получится, когда эксцентричный профессор совершит открытие, способное нарушить древний баланс власти четвероногих. Маленький и неопытный щенок по имени Лу начинает маловыполнимую миссию: пытается спасти человечество от КОТастрофы.

Качество: HDRip
Формат: AVI
Видео кодек: XviD
Аудио кодек: AC3
Видео: 720x400, 23.976 fps, 1609 kbps
Аудио#1: 48 kHz, AC3 Dolby Digital, 3/2 (L,C,R,l,r) + LFE ch, ~384.00 kbps avg [Dub]
Аудио#2: 48 kHz, AC3 Dolby Digital, 3/2 (L,C,R,l,r) + LFE ch, ~384.00 kbps avg [MVO]
Аудио#3: 48 kHz, AC3 Dolby Digital, 3/2 (L,C,R,l,r) + LFE ch, ~384.00 kbps avg [Original] (отдельно)
Аудио#4: 48 kHz, AC3 Dolby Digital, 3/2 (L,C,R,l,r) + LFE ch, ~384.00 kbps avg [MVO] Карусель (отдельно)





I:Кошки против собакCats.&.DogsCats.&.Dogs.avi
General
Complete name : I:Кошки против собакCats.&.DogsCats.&.Dogs.avi
Format : AVI
Format/Info : Audio Video Interleave
File size : 1.46 GiB
Duration : 1h 27mn
Overall bit rate : 2 390 Kbps
Movie name : Кошки против собак / Cats & Dogs
Director : vasapel
Genre : Комедия, Семейный
Writing application : VirtualDubMod 1.5.10.2 (build 2540/release)
Original source form/Name : Movie

Comment : Год: 2001 / Бюджет: $60 000 000
Video #0
ID : 0
Format : MPEG-4 Visual
Format profile : Advanced Simple@L5
Format settings, BVOP : 3
Format settings, QPel : No
Format settings, GMC : No warppoints
Format settings, Matrix : Custom
Codec ID : XVID
Codec ID/Hint : XviD
Duration : 1h 27mn
Bit rate : 1 609 Kbps
Width : 720 pixels
Height : 400 pixels
Display aspect ratio : 16:9
Frame rate : 23.976 fps
Color space : YUV
Chroma subsampling : 4:2:0
Bit depth : 8 bits
Scan type : Progressive
Compression mode : Lossy
Bits/(Pixel*Frame) : 0.233
Stream size : 1 004 MiB (67%)
Writing library : XviD 1.2.1 (UTC 2008-12-04)
Audio #1
ID : 1
Format : AC-3
Format/Info : Audio Coding 3
Mode extension : CM (complete main)
Format settings, Endianness : Big
Codec ID : 2000
Duration : 1h 27mn
Bit rate mode : Constant
Bit rate : 384 Kbps
Channel(s) : 6 channels
Channel positions : Front: L C R, Side: L R, LFE
Sampling rate : 48.0 KHz
Bit depth : 16 bits
Compression mode : Lossy
Stream size : 240 MiB (16%)
Alignment : Split accross interleaves
Interleave, duration : 42 ms (1.00 video frame)
Interleave, preload duration : 500 ms
Audio #2
ID : 2
Format : AC-3
Format/Info : Audio Coding 3
Mode extension : CM (complete main)
Format settings, Endianness : Big
Codec ID : 2000
Duration : 1h 27mn
Bit rate mode : Constant
Bit rate : 384 Kbps
Channel(s) : 6 channels
Channel positions : Front: L C R, Side: L R, LFE
Sampling rate : 48.0 KHz
Bit depth : 16 bits
Compression mode : Lossy
Stream size : 240 MiB (16%)
Alignment : Split accross interleaves
Interleave, duration : 42 ms (1.00 video frame)
Interleave, preload duration : 500 ms


Кошки против собак скачать торрент


pb.wtf



Скачать Кошки против собак через торрент https://pic.kartinco.top/images/3/afbu6e18f4.jpg Скачать фильм Кошки против собак через торрент бесплантно в хорошем качестве Описание: Они — хитры. Они — вороваты. Они начинают сверхсекретную войну на высшем технологическом уровне за Влacть над миром, и все — под ... 10 10 6
Info! Золотая раздача, скачанное не засчитывается.
Торрент: Зарегистрирован [2013-07-29 13:49] · скачан: 31 раз
Статус: √ проверено
Размер: 1.93 GB
Как cкачать? Как скачать Кошки против собак через торрент | UTorrent

28-11-2019 20:33  

Отключить всю рекламу на сайте

16-08-2015 11:19 Кошки против собак Скачать торрент  

если у вас золотая раздача хотя бы делайте так чтобы битые скрины не попадались...pb.wtf



    Дорогой пользователь! Огромная просьба, поблагодарите релизера, оцените раздачу и оставьте свои комментарий, если Вы скачали Кошки против собак через торрент бесплатно! Внесите свою лепту в развитие PiratBit!
    Комментировать посты могут только пользователи прошедшие не сложную регистрацию
    Показать сообщения:    

    Кошки против собак через торрент
    Скачать бесплатно Кошки против собак
    Кошки против собак скачать торрент
    Кошки против собак смотреть онлайн
    Cкачать фильм Кошки против собак бесплатно
    Кошки против собак скачать торрент в хорошем качестве
    Кошки против собак смотреть онлайн бесплатно в хорошем качестве


    Вы не можете начинать темы
    Вы не можете отвечать на сообщения
    Вы не можете редактировать свои сообщения
    Вы не можете удалять свои сообщения
    Вы не можете голосовать в опросах
    Вы не можете прикреплять файлы к сообщениям
    Вы можете скачивать файлы