Ссылка на приватное зеркало всего за 1$. Внимание количество ограничено!!!

iTunes

iTunes

iTunes

1

iTunes

iTunes

iTunes

iTunes

iTunes

30
pack

$ от Little Big

ВАЖНО

!!Акция!!

Alien_RageХит недели

RePack

Resident Evil 21

ИГРА 18+

pack

RePack

jed

!!Акция!!

Alien_Rage

RePack

fifa19

RePack

Assassins Creed: Odyssey

RePack

NEED FOR SPEED™ PAYBACK

4 сезон

9 сезон

Бесстыжие 9 сезон

Все сериалы

все сериалы на PB.wtf

RePack

FAR CRY 5
  

Хороший год / A Good Year (Ридли Скотт) [2006 г., комедия, семейный, мелодрама, WEB-DLRip 720p, Дубляж] pb.wtf

Хороший год через торрент pb.wtf

Размер: 4.36 GB | Добавлен: 6 лет 11 мес. назад | Торрент скачан:69 раз
Скачать  

29-07-2013 14:56 Хороший год Скачать торрент  

Хороший год / A Good Year
Год выпуска: 2006
Страна: США, Великобритания
Жанр: комедия, семейный, мелодрама,
Продолжительность: 01:57:32
Перевод: Дубляж
Субтитры: русские,англ.

Режиссер: Ридли Скотт
Продюссер: Ридли Скотт, Марк Аллан, Лиза Эллзи
Сценарий: Марк Клейн, Питер Мэйл

Бюджет: $35 000 000
Премьера в мире: 9 сентября 2006

зрителям, достигшим 16 лет

http://www.kinopoisk.ru/film/77596/

В ролях: Рассел Кроу, Марион Котийяр, Альберт Финни, Фредди Хаймор, Том Холландер, Рейф Сполл, Арчи Панджаби, Ричард Койл, Бен Райтон, Патрик Кеннеди,

Описание: Воротила Лондонской фондовой биржи, безумно умный, удачливый менеджер и по совместительству большой зануда наследует винодельню в Провансе. По прибытии во Францию он обнаруживает, что, кроме него, есть еще люди, претендующие на его законную собственность. Цепочка невероятных событий и открытий заставят его по-новому взглянуть на истинные ценности этого мира…

Качество: WEB-DLRip 720p
Формат: MKV
Видео кодек: MPEG4
Аудио кодек:DTS,AC3
Видео: 1280x544 at 23.976 fps, MPEG-4 AVC, 4098 kbps
Аудио#1: English: 48 kHz, AC3, 5.1, 448.00 kbps
Аудио#2: Russian: 48 kHz, DTS, 5.1, 768.00 kbps Дубляж, R5





I:КиноХороший годA Good Year WEB-DL.mkv
General
Unique ID : 218803093727233947039353061746928445337 (0xA49BF169533EE74F90E51F74748EE799)
Complete name : I:КиноХороший годA Good Year WEB-DL.mkv
Format : Matroska
Format version : Version 2
File size : 4.36 GiB
Duration : 1h 57mn
Overall bit rate : 5 303 Kbps
Encoded date : UTC 2012-11-25 18:39:59
Writing application : mkvmerge v5.7.0 ('The Whirlwind') built on Jul 8 2012 20:08:51
Writing library : libebml v1.2.3 + libmatroska v1.3.0
Video #1
ID : 1
Format : AVC
Format/Info : Advanced Video Codec
Format profile : Main@L3.1
Format settings, CABAC : No
Format settings, ReFrames : 2 frames
Codec ID : V_MPEG4/ISO/AVC
Duration : 1h 57mn
Bit rate : 3 995 Kbps
Width : 1 280 pixels
Height : 544 pixels
Display aspect ratio : 2.35:1
Frame rate mode : Constant
Frame rate : 23.976 fps
Color space : YUV
Chroma subsampling : 4:2:0
Bit depth : 8 bits
Scan type : Progressive
Bits/(Pixel*Frame) : 0.239
Stream size : 3.28 GiB (75%)
Language : English
Default : Yes
Forced : No
Color primaries : BT.709
Transfer characteristics : BT.709
Matrix coefficients : BT.709
Audio #2
ID : 2
Format : AC-3
Format/Info : Audio Coding 3
Mode extension : CM (complete main)
Format settings, Endianness : Big
Codec ID : A_AC3
Duration : 1h 57mn
Bit rate mode : Constant
Bit rate : 448 Kbps
Channel(s) : 6 channels
Channel positions : Front: L C R, Side: L R, LFE
Sampling rate : 48.0 KHz
Bit depth : 16 bits
Compression mode : Lossy
Stream size : 377 MiB (8%)
Title : R1 AC3 448 kbps
Language : English
Default : No
Forced : No
Audio #3
ID : 3
Format : DTS
Format/Info : Digital Theater Systems
Mode : 16
Format settings, Endianness : Big
Codec ID : A_DTS
Duration : 1h 57mn
Bit rate mode : Constant
Bit rate : 755 Kbps
Channel(s) : 6 channels
Channel positions : Front: L C R, Side: L R, LFE
Sampling rate : 48.0 KHz
Bit depth : 24 bits
Compression mode : Lossy
Stream size : 634 MiB (14%)
Title : Dub R5 DTS 768 kbps
Language : Russian
Default : Yes
Forced : No
Text #4
ID : 4
Format : UTF-8
Codec ID : S_TEXT/UTF8
Codec ID/Info : UTF-8 Plain Text
Language : English
Default : No
Forced : No
Text #5
ID : 5
Format : UTF-8
Codec ID : S_TEXT/UTF8
Codec ID/Info : UTF-8 Plain Text
Title : forced
Language : Russian
Default : No
Forced : No
Text #6
ID : 6
Format : UTF-8
Codec ID : S_TEXT/UTF8
Codec ID/Info : UTF-8 Plain Text
Title : R5
Language : Russian
Default : No
Forced : No
Menu
00:00:00.000 : en:Main Titles/A Few Vintages Ago
00:04:26.000 : en:Timing
00:07:50.000 : en:Toast of the Town
00:13:01.000 : en:France and a Little Car
00:16:13.000 : en:Uncle Henry's Estate
00:23:17.000 : en:Meeting with the Notaire
00:28:05.000 : en:Stuck in the Pool
00:35:26.000 : en:A Forced Holiday
00:39:20.000 : en:72 Hours
00:43:24.000 : en:Christie Roberts
00:48:35.000 : en:Enjoying Himself
00:52:31.000 : en:Memories
00:56:38.000 : en:Fanny Chenal
01:01:41.000 : en:Henry's Spirit
01:05:52.000 : en:Dinner with the Duflots
01:13:57.000 : en:Testing the Vines
01:20:03.000 : en:Charlie Arrives
01:25:23.000 : en:Two Untrusting Souls
01:31:05.000 : en:To Sell or Not to Sell
01:35:14.000 : en:Saying Goodbye
01:37:00.000 : en:A Fabricated Truth
01:38:47.000 : en:The Offer
01:44:02.000 : en:Choosing Love
01:51:21.000 : en:End Titles


Хороший год скачать торрент


pb.wtf



Скачать Хороший год через торрент http://pic.kartinco.top/images/3/w2lcx8msah.png Скачать фильм Хороший год через торрент бесплантно в хорошем качестве Описание: Воротила Лондонской фондовой биржи, безумно умный, удачливый менеджер и по совместительству большой зануда наследует винодельню в ... 10 10 10
Info! Золотая раздача, скачанное не засчитывается.
Торрент: Зарегистрирован [2013-07-29 14:56] · скачан: 69 раз
Статус: √ проверено
Размер: 4.36 GB
Как cкачать? Как скачать Хороший год через торрент | qTorrent

% Раздел Тема Автор DL S | L
Фильмы (Blu-ray, BD-Remux, HDDVD) [ 46.18 GB ] Хороший год / A Good Year [2006 Blu-Ray disc 1080p] [CEE] Dub + Original Eng + Subs Rus Eng Assasinca Скачать
1 | 0
Фильмы [HD 720p, 1080p] (Хороший звук DUB, MVO) [ 11.87 GB ] Хороший год / A Good Year [2006 BDRip 1080p] DUB AVO msltel Скачать
2 | 0
Фильмы [HD 720p, 1080p] (Хороший звук DUB, MVO) [ 4.96 GB ] Хороший год / A Good Year [2006 BDRip 720p] DUB AVO msltel Скачать
2 | 0
Фильмы (WEB-DL 720p, 1080p) [ 4.73 GB ] Хороший год / A Good Year [2006 HDTV лицензия] Anonymous Скачать
2 | 0
Фильмы 2006-2008 [ 2.04 GB ] Хороший год / A Good Year [2006 HDTVRip] MoNaZ Скачать
1 | 0

28-11-2019 20:33  

Отключить всю рекламу на сайте

    Дорогой пользователь! Огромная просьба, поблагодарите релизера, оцените раздачу и оставьте свои комментарий, если Вы скачали Хороший год через торрент бесплатно! Внесите свою лепту в развитие PiratBit!
    Комментировать посты могут только пользователи прошедшие не сложную регистрацию
    Показать сообщения:    

    Хороший год через торрент
    Скачать бесплатно Хороший год
    Хороший год скачать торрент
    Хороший год смотреть онлайн
    Cкачать фильм Хороший год бесплатно
    Хороший год скачать торрент в хорошем качестве
    Хороший год смотреть онлайн бесплатно в хорошем качестве


    Вы не можете начинать темы
    Вы не можете отвечать на сообщения
    Вы не можете редактировать свои сообщения
    Вы не можете удалять свои сообщения
    Вы не можете голосовать в опросах
    Вы не можете прикреплять файлы к сообщениям
    Вы можете скачивать файлы