Доктор Стрэндж

Лицензия

Добыча

Дубляж

Дом дракона

1 сезон

Тор

Дубляж

В эфире

Дубляж

Там, где раки поют

MVO

Властелин колец

1 сезон

GLOBAL

pack

Рекомендуем

30

Пиратка

ВАЖНО

ВАЖНО

Ghostwire

Пиратка

jed

RePack

nioh2

RePack

RDR2

RePack

NEED FOR SPEED™ PAYBACK

RePack

скачать торрент

Кинопоиск HD

Острые козырьки 6 сезон

6 сезон

FAR CRY 6

RePack

скачать торрент

Лицензия

скачать торрент

MVO

1

1 сезон

скачать торрент

1 сезон

скачать торрент

Лицензия

  

Проклятый путь / Road to Perdition (Сэм Мендес) [2002 г., криминал, триллер, боевик, BD-Remux, Дубляж]

Проклятый путь через торрент pb.wtf

Размер: 30.81 GB | Добавлен: 9 лет 4 мес. назад | Торрент скачан:23 раза
Смотреть онлайн | Скачать   

30-07-2013 06:03 Проклятый путь Скачать торрент  

Проклятый путь / Road to Perdition
Год выпуска: 2002
Страна: США
Жанр: криминал, триллер, боевик,
Продолжительность: 01:56:58
Перевод: Дубляж
Субтитры: Russian, Ukrainian, English, Russian (комментарии)

Режиссер: Сэм Мендес
Продюссер: Сэм Мендес, Дин Занук, Ричард Д. Занук
Сценарий: Дэвид Селф, Макс Аллан Коллинз, Ричард Пирс Рейнер

Бюджет: $80 000 000
Премьера в мире: 12 июля 2002



В ролях: Том Хэнкс, Пол Ньюман, Джуд Лоу, Дженнифер Джейсон Ли, Стенли Туччи, Дэниэл Крэйг, Тайлер Хёхлин, Лиам Эйкен, Киаран Хиндс, Дилан Бейкер.,

Описание: Чикаго времен Великой депрессии. Два сына — Майкл Салливан-младший и Коннор Руни отчаянно стараются завоевать расположение своих отцов — Майкла Салливана-старшего, гангстера из ирландского клана, и Джона Руни, босса Салливана-старшего, заменившего ему отца. Ревность и соперничество толкают их всех на гибельный путь.

Семья Салливана-старшего становится жертвой страшной «профессии» главы семейства. Погибают его любимая жена и младший сын Питер. Месть и трагедия становятся постоянными спутниками Майкла и его оставшегося в живых сына…
Оскар 2003
Лучшая работа оператора
Номинации (5):
Лучшая мужская роль второго плана, Лучшие декорации, Лучший звук, Лучший монтаж звука, Лучший оригинальный саундтрек


Доп. информация: Сохранены оригинальные чаптеры как на Blu-ray.
Дорожки с одноголосыми переводом получены наложением чистого голоса на центр декодированного DTS-HD.

Качество: BD-Remux
Формат: BDAV
Видео кодек: MPEG4 AVC
Аудио кодек: DTS
Видео: 1920x1080 at 23.976 fps, MPEG-4 AVC, ~22.38 Mbps avg
Аудио#1: Russian: 48 kHz, DTS, 3/2 (L,C,R,l,r) + LFE ch, ~768.00 kbps avg |Дубляж, Blu-ray|
Аудио#2: Russian: 48 kHz, AC3, 3/2 (L,C,R,l,r) + LFE ch, ~384.00 kbps avg |Многоголосый закадровый|
Аудио#3: Russian: 48 kHz/24-bit, DTS-HD MA 5.1, ~3825.00 kbps avg |Одноголосый закадровый, Ю. Живов|
Аудио#4: Russian: 48 kHz/24-bit, DTS-HD MA 5.1, ~3822.00 kbps avg |Одноголосый закадровый, В. Горчаков|
Аудио#5: English: 48 kHz/24-bit, DTS-HD MA 5.1, ~3803.00 kbps avg
Аудио#6: English: 48 kHz, AC3, 2/0 (L,R) ch, ~224.00 kbps avg |Комментарии|






I:Проклятый путьROAD_TO_PERDITIONBDMVSTREAM�0000.m2ts
General #1
ID : 1 (0x1)
Complete name : I:Художественное КиноПроклятый путьROAD_TO_PERDITIONBDMVSTREAM�0000.m2ts
Format : BDAV
Format/Info : Blu-ray Video
File size : 30.8 GiB
Duration : 1h 56mn
Overall bit rate mode : Variable
Overall bit rate : 37.7 Mbps
Maximum Overall bit rate : 35.5 Mbps
Video #4113
ID : 4113 (0x1011)
Menu ID : 1 (0x1)
Format : AVC
Format/Info : Advanced Video Codec

Format settings, CABAC : Yes
Format settings, ReFrames : 4 frames
Codec ID : 27
Duration : 1h 56mn
Bit rate mode : Variable
Maximum bit rate : 35.0 Mbps
Width : 1 920 pixels
Height : 1 080 pixels
Display aspect ratio : 16:9
Frame rate : 23.976 fps
Color space : YUV
Chroma subsampling : 4:2:0
Bit depth : 8 bits
Scan type : Progressive
Color primaries : BT.709
Transfer characteristics : BT.709
Matrix coefficients : BT.709
Audio #4352
ID : 4352 (0x1100)
Menu ID : 1 (0x1)
Format : DTS
Format/Info : Digital Theater Systems
Mode : 16
Format settings, Endianness : Big
Codec ID : 130
Duration : 1h 56mn
Bit rate mode : Constant
Bit rate : 768 Kbps
Channel(s) : 6 channels
Channel positions : Front: L C R, Side: L R, LFE
Sampling rate : 48.0 KHz
Bit depth : 24 bits
Compression mode : Lossy
Stream size : 643 MiB (2%)
Language : Russian
Audio #4353
ID : 4353 (0x1101)
Menu ID : 1 (0x1)
Format : AC-3
Format/Info : Audio Coding 3
Mode extension : CM (complete main)
Format settings, Endianness : Big
Codec ID : 129
Duration : 1h 56mn
Bit rate mode : Constant
Bit rate : 384 Kbps
Channel(s) : 6 channels
Channel positions : Front: L C R, Side: L R, LFE
Sampling rate : 48.0 KHz
Bit depth : 16 bits
Compression mode : Lossy
Stream size : 321 MiB (1%)
Language : Russian
Audio #4354
ID : 4354 (0x1102)
Menu ID : 1 (0x1)
Format : DTS
Format/Info : Digital Theater Systems
Format profile : MA / Core
Mode : 16
Format settings, Endianness : Big
Muxing mode : Stream extension
Codec ID : 134
Duration : 1h 56mn
Bit rate mode : Variable
Bit rate : Unknown / 1 509 Kbps
Channel(s) : 6 channels
Channel positions : Front: L C R, Side: L R, LFE
Sampling rate : 48.0 KHz
Bit depth : 24 bits
Compression mode : Lossless / Lossy
Language : Russian
Audio #4355
ID : 4355 (0x1103)
Menu ID : 1 (0x1)
Format : DTS
Format/Info : Digital Theater Systems
Format profile : MA / Core
Mode : 16
Format settings, Endianness : Big
Muxing mode : Stream extension
Codec ID : 134
Duration : 1h 56mn
Bit rate mode : Variable
Bit rate : Unknown / 1 509 Kbps
Channel(s) : 6 channels
Channel positions : Front: L C R, Side: L R, LFE
Sampling rate : 48.0 KHz
Bit depth : 24 bits
Compression mode : Lossless / Lossy
Language : Russian
Audio #4356
ID : 4356 (0x1104)
Menu ID : 1 (0x1)
Format : DTS
Format/Info : Digital Theater Systems
Format profile : MA / Core
Mode : 16
Format settings, Endianness : Big
Muxing mode : Stream extension
Codec ID : 134
Duration : 1h 56mn
Bit rate mode : Variable
Bit rate : Unknown / 1 509 Kbps
Channel(s) : 6 channels
Channel positions : Front: L C R, Side: L R, LFE
Sampling rate : 48.0 KHz
Bit depth : 24 bits
Compression mode : Lossless / Lossy
Language : English
Audio #4357
ID : 4357 (0x1105)
Menu ID : 1 (0x1)
Format : AC-3
Format/Info : Audio Coding 3
Mode extension : CM (complete main)
Format settings, Endianness : Big
Codec ID : 129
Duration : 1h 56mn
Bit rate mode : Constant
Bit rate : 224 Kbps
Channel(s) : 2 channels
Channel positions : Front: L R
Sampling rate : 48.0 KHz
Bit depth : 16 bits
Compression mode : Lossy
Stream size : 187 MiB (1%)
Language : English
Text #4608
ID : 4608 (0x1200)
Menu ID : 1 (0x1)
Format : PGS
Codec ID : 144
Language : Russian
Text #4609
ID : 4609 (0x1201)
Menu ID : 1 (0x1)
Format : PGS
Codec ID : 144
Language : Ukrainian
Text #4610
ID : 4610 (0x1202)
Menu ID : 1 (0x1)
Format : PGS
Codec ID : 144
Language : English
Text #4611
ID : 4611 (0x1203)
Menu ID : 1 (0x1)
Format : PGS
Codec ID : 144
Language : Russian


Проклятый путь скачать торрент





Скачать Проклятый путь через торрент https://pic1.kartinco.top/images/23/mfmvidycf1.jpg Скачать, смотреть онлайн Проклятый путь бесплантно в хорошем качестве Описание: Чикаго времен Великой депрессии. Два сына — Майкл Салливан-младший и Коннор Руни отчаянно стараются завоевать расположение своих ... 9.7 10 7
Info! Золотая раздача, скачанное не засчитывается.
Торрент: Зарегистрирован [2013-07-30 06:03] · скачан: 23 раз
Статус: √ проверено
Размер: 30.81 GB
Как cкачать? Как скачать Проклятый путь через торрент | UTorrent

% Раздел Тема Автор DL S | L
Фильмы [HD 720p, 1080p] (Хороший звук DUB, MVO) [ 7.98 GB ] Проклятый путь / Road to Perdition | DUB | 1080p killermax2013 Скачать
1 | 0
Фильмы (WEB-DL 720p, 1080p) [ 13.15 GB ] Проклятый путь / Road to Perdition | DUB+MVO+5xAVO | 1080p, (Open Matte bober100 Скачать
1 | 0
Фильмы [HD 720p, 1080p] (Хороший звук DUB, MVO) [ 6.09 GB ] Проклятый путь / Road to Perdition | Дубляж+MVO+2хAVO | 1080p, Дубляж+MVO+2хAVO Мичман37 Скачать
1 | 0
Фильмы 2001-2005 [ 1.46 GB ] Проклятый путь / Road to Perdition | DUB | BDRip, DUB [ лицензия sokol_ok Скачать
1 | 0
Фильмы [HD 720p, 1080p] (Хороший звук DUB, MVO) [ 9.18 GB ] Проклятый путь / Road to Perdition | | 720p diletant Скачать
1 | 0
Фильмы 2001-2005 [ 1.36 GB ] Проклятый путь / Road to Perdition | | Проклятый путь / Road to Perdition (Сэм Мендес sergei_s.75 Скачать
1 | 0

28-11-2019 20:33  


Отключить вcю реклaмy на сайте, в т.ч. и в плеере онлайн просмотра!

    Дорогой пользователь! Огромная просьба, поблагодарите релизера, оцените раздачу и оставьте свои комментарий, если Вы скачали Проклятый путь через торрент бесплатно!!
    Комментировать посты могут только пользователи прошедшие не сложную регистрацию
    Показать сообщения:    


    Проклятый путь через торрент
    Скачать бесплатно Проклятый путь
    Проклятый путь скачать торрент
    Проклятый путь смотреть онлайн
    Cкачать фильм Проклятый путь бесплатно
    Проклятый путь скачать торрент в хорошем качестве
    Проклятый путь смотреть онлайн бесплатно в хорошем качестве
    Вы не можете начинать темы
    Вы не можете отвечать на сообщения
    Вы не можете редактировать свои сообщения
    Вы не можете удалять свои сообщения
    Вы не можете голосовать в опросах
    Вы не можете прикреплять файлы к сообщениям
    Вы можете скачивать файлы
    Проклятый путь / Road to Perdition [2002 г., криминал, триллер, боевик, BD-Remux, Дубляж] смотреть онлайн, скачать торрент picoco.icu