Ссылка на приватное зеркало нашего сайта всего за 1$. Внимание количество ограничено!!!

2 сезон

iTunes

1 сезон

1

iTunes

iTunes

iTunes

1 сезон

RePack

30

ИГРА 18+

pack

ВАЖНО

!!Акция!!

Alien_RageХит недели

RePack

MK11
pack

Забери бонус

RePack

jed

!!Акция!!

Alien_Rage

RePack

fifa19

RePack

Assassins Creed: Odyssey

RePack

NEED FOR SPEED™ PAYBACK

4 сезон

9 сезон

Бесстыжие 9 сезон

Все сериалы

все сериалы на PB.wtf

RePack

FAR CRY 5
  

Трудная мишень / Hard Target (Джон Ву) [1993 г., боевик, триллер, BDRip 1080p, Профессиональный (многоголосый закадровый)] pb.wtf

Трудная мишень через торрент pb.wtf

Размер: 5.75 GB | Добавлен: 7 лет 2 мес. назад | Торрент скачан:164 раза
Скачать  

30-07-2013 12:28 Трудная мишень Скачать торрент  

Трудная мишень / Hard Target
Год выпуска: 1993
Страна: США
Жанр: боевик, триллер,
Продолжительность: 01:39:33
Перевод: Профессиональный (многоголосый закадровый)
Субтитры: Russian (UTF-8), English (UTF-8)

Режиссер: Джон Ву
Продюссер: Теренс Чанг, Шон Дэниэл, Моше Дайамант
Сценарий: Чак Пфаррер

Бюджет: $15 000 000
Премьера в мире: 20 августа 1993



В ролях: Жан-Клод Ван Дамм, Чак Пфаррер, Роберт Аписа, Арнольд Вослу, Лэнс Хенриксен, Дуглас Форсайт Рай, Майк Лейнерт, Янси Батлер, Ленор Бэнкс, Уилли С. Карпентер, Барбара Таскер, Кейси Леммонс, Рэнди Шерами, Элиотт Кинер, Роберт Павлович, Марко Ст. Джон, Джо Уорфилд, Жанетт Контомитра, Тед Рэйми, Том Люпо, Жуль Сильвестр, Дэвид Эфрон, Уилфорд Бримли,

Описание: Мужественный герой неутомимого Ван Дамма пытается помочь молодой красавице найти ее отца, ветерана вьетнамской войны, пропавшего без вести не на полях сражений, а в родной стране, а в результате — вынужден не на жизнь, а на смерть схватиться с бандой патологических злодеев, которые используют несчастных бездомных в качестве жертв своей жестокой и опасной игры.


Качество: BDRip 1080p
Формат: MKV
Видео кодек: H.264
Аудио кодек: AC3
Видео: 1920x1040 (16:9), 23.976 fps, AVC, 7 451 Kbps, ( 0.156 bit/pixel)
Аудио#1: AC3, 384 Kbps, 48.0 KHz, 6 ch Russian
Аудио#2: AC3, 448 Kbps, 48.0 KHz, 6 ch English




Лог:
- x264 [info]: frame I:997 Avg QP:19.31 size:138800
- x264 [info]: frame P:33210 Avg QP:21.92 size: 66556
- x264 [info]: frame B:109015 Avg QP:23.77 size: 29411


General
Complete name : Trudnaya.mishenj.1993.BDRip.1080p.mkv
Format : Matroska
File size : 5.75 GiB
Duration : 1h 39mn
Overall bit rate : 8 273 Kbps
Encoded date : UTC 2013-07-27 03:39:06
Writing application : mkvmerge v6.1.0 ('Old Devil') built on Mar 2 2013 14:32:37
Writing library : libebml v1.3.0 + libmatroska v1.4.0

Video
ID : 1
Format : AVC
Format/Info : Advanced Video Codec
Format profile : High@L4.1
Format settings, CABAC : Yes
Format settings, ReFrames : 4 frames
Muxing mode : Container profile=Unknown@4.1
Codec ID : V_MPEG4/ISO/AVC
Duration : 1h 39mn
Bit rate : 7 451 Kbps
Width : 1 920 pixels
Height : 1 040 pixels
Display aspect ratio : 16:9
Frame rate : 23.976 fps
Color space : YUV
Chroma subsampling : 4:2:0
Bit depth : 8 bits
Scan type : Progressive
Bits/(Pixel*Frame) : 0.156
Stream size : 5.06 GiB (88%)
Writing library : x264 core 135 r2345 f0c1c53
Encoding settings : cabac=1 / ref=4 / deblock=1:-1:-1 / analyse=0x3:0x133 / me=umh / subme=10 / psy=1 / psy_rd=1.00:0.00 / mixed_ref=1 / me_range=32 / chroma_me=1 / trellis=2 / 8x8dct=1 / cqm=0 / deadzone=21,11 / fast_pskip=0 / chroma_qp_offset=-2 / threads=6 / lookahead_threads=1 / sliced_threads=0 / nr=0 / decimate=1 / interlaced=0 / bluray_compat=0 / constrained_intra=0 / bframes=10 / b_pyramid=2 / b_adapt=2 / b_bias=0 / direct=3 / weightb=1 / open_gop=0 / weightp=2 / keyint=240 / keyint_min=24 / scenecut=40 / intra_refresh=0 / rc_lookahead=50 / rc=2pass / mbtree=0 / bitrate=7451 / ratetol=2.0 / qcomp=1.00 / qpmin=0 / qpmax=51 / qpstep=4 / cplxblur=20.0 / qblur=0.5 / vbv_maxrate=50000 / vbv_bufsize=62500 / nal_hrd=none / ip_ratio=1.40 / pb_ratio=1.30 / aq=1:1.00
Color primaries : BT.709-5, BT.1361, IEC 61966-2-4, SMPTE RP177
Transfer characteristics : BT.709-5, BT.1361
Matrix coefficients : BT.709-5, BT.1361, IEC 61966-2-4 709, SMPTE RP177

Audio #1
ID : 2
Format : AC-3
Format/Info : Audio Coding 3
Mode extension : CM (complete main)
Codec ID : A_AC3
Duration : 1h 39mn
Bit rate mode : Constant
Bit rate : 384 Kbps
Channel(s) : 6 channels
Channel positions : Front: L C R, Side: L R, LFE
Sampling rate : 48.0 KHz
Bit depth : 16 bits
Stream size : 273 MiB (5%)
Title : - MVO -
Language : Russian

Audio #2
ID : 3
Format : AC-3
Format/Info : Audio Coding 3
Mode extension : CM (complete main)
Codec ID : A_AC3
Duration : 1h 39mn
Bit rate mode : Constant
Bit rate : 448 Kbps
Channel(s) : 6 channels
Channel positions : Front: L C R, Side: L R, LFE
Sampling rate : 48.0 KHz
Bit depth : 16 bits
Stream size : 319 MiB (5%)
Language : English

Text #1
ID : 4
Format : UTF-8
Codec ID : S_TEXT/UTF8
Codec ID/Info : UTF-8 Plain Text
Language : Russian

Text #2
ID : 5
Format : UTF-8
Codec ID : S_TEXT/UTF8
Codec ID/Info : UTF-8 Plain Text
Language : English

Menu
00:00:00.000 : en:00:00:00.000
00:08:22.293 : en:00:08:22.293
00:16:06.924 : en:00:16:06.924
00:26:03.645 : en:00:26:03.645
00:40:07.697 : en:00:40:07.697
00:42:53.029 : en:00:42:53.029
00:53:40.592 : en:00:53:40.592
01:05:01.481 : en:01:05:01.481
01:08:57.925 : en:01:08:57.925
01:12:25.216 : en:01:12:25.216
01:14:30.299 : en:01:14:30.299
01:18:05.973 : en:01:18:05.973
01:24:45.622 : en:01:24:45.622
01:27:23.947 : en:01:27:23.947
01:32:15.155 : en:01:32:15.155
01:34:28.413 : en:01:34:28.413

pb.wtf



Скачать Трудная мишень через торрент http://pic.kartinco.top/images/3/93yb7c34v1.jpg Скачать фильм Трудная мишень через торрент бесплантно в хорошем качестве Описание: Мужественный герой неутомимого Ван Дамма пытается помочь молодой красавице найти ее отца, ветерана вьетнамской войны, пропавшего ... 9.2 10 13
Info! Золотая раздача, скачанное не засчитывается.
Торрент: Зарегистрирован [2013-07-30 12:28] · скачан: 164 раз
Статус: √ проверено
Размер: 5.75 GB
Как cкачать? Как скачать Трудная мишень через торрент | qTorrent

% Раздел Тема Автор DL S | L
Фильмы (Blu-ray, BD-Remux, HDDVD) [ 40.56 GB ] Трудная мишень 2 / Hard Target 2 [2016 Blu-Ray CEE] Russian Mafia Скачать
1 | 1
Фильмы 2016 [DVDrip, WEB-DLRip, HDrip] (DUB, MVO) [ 1.37 GB ] Трудная мишень 2 / Hard Target 2 [2016 HDRip ] sanekbest1 Скачать
1 | 0
Фильмы 2016 [DVDrip, WEB-DLRip, HDrip] (DUB, MVO) [ 2.05 GB ] Трудная мишень 2 / Hard Target 2 [2016 HDRip "BD CEE"] coc900 Скачать
1 | 0
Фильмы [HD 720p, 1080p] (Хороший звук DUB, MVO) [ 6.84 GB ] Трудная мишень 2 / Hard Target 2 [2016 BDRip 720p] [] smaster Скачать
1 | 0
Фильмы 2016 [DVDrip, WEB-DLRip, HDrip] (DUB, MVO) [ 1.46 GB ] Трудная мишень 2 / Hard Target 2 [2016 BDRip - [] Twi7ter Скачать
1 | 0
Фильмы [HD 720p, 1080p] (Хороший звук DUB, MVO) [ 11.16 GB ] Трудная мишень 2 / Hard Target 2 [2016 BDRip 1080p] [] smaster Скачать
1 | 0
Фильмы (Blu-ray, BD-Remux, HDDVD) [ 16.21 GB ] Трудная мишень 2 / Hard Target 2 [2016 BDRemux 1080p] от ExKinoRay / Russian Mafia Скачать
1 | 0

28-11-2019 20:33  

Отключить всю рекламу на сайте

30-07-2013 15:24 Трудная мишень Скачать торрент  

Любимый с Ванн-Даммом!!! :good2:pb.wtf



30-07-2013 19:10 Трудная мишень Скачать торрент  

Не идут ему длинные волосы
А фильм хороший.pb.wtf



    Дорогой пользователь! Огромная просьба, поблагодарите релизера, оцените раздачу и оставьте свои комментарий, если Вы скачали Трудная мишень через торрент бесплатно! Внесите свою лепту в развитие PiratBit!
    Комментировать посты могут только пользователи прошедшие не сложную регистрацию
    Показать сообщения:    

    Трудная мишень через торрент
    Скачать бесплатно Трудная мишень
    Трудная мишень скачать торрент
    Трудная мишень смотреть онлайн
    Cкачать фильм Трудная мишень бесплатно
    Трудная мишень скачать торрент в хорошем качестве
    Трудная мишень смотреть онлайн бесплатно в хорошем качестве


    Вы не можете начинать темы
    Вы не можете отвечать на сообщения
    Вы не можете редактировать свои сообщения
    Вы не можете удалять свои сообщения
    Вы не можете голосовать в опросах
    Вы не можете прикреплять файлы к сообщениям
    Вы можете скачивать файлы