Ссылка на приватное зеркало нашего сайта всего за 1$. Внимание количество ограничено!!!

2 сезон

iTunes

1 сезон

1

iTunes

iTunes

iTunes

1 сезон

RePack

30

ИГРА 18+

pack

ВАЖНО

!!Акция!!

Alien_RageХит недели

RePack

MK11
pack

Забери бонус

RePack

jed

!!Акция!!

Alien_Rage

RePack

fifa19

RePack

Assassins Creed: Odyssey

RePack

NEED FOR SPEED™ PAYBACK

4 сезон

9 сезон

Бесстыжие 9 сезон

Все сериалы

все сериалы на PB.wtf

RePack

FAR CRY 5
  

12 подвигов Астерикса / Les douze travaux d'Asterix / The Twelve Tasks of Asterix (Рене Госинни / Rene Goscinny, Генри Грюель / Henri Gruel) [1976, Франция, Германия, фэнтези, комедия, приключения, DVDRip] MVO pb.wtf

12 подвигов Астерикса через торрент pb.wtf

Размер: 744 MB | Добавлен: 7 лет 2 мес. назад | Торрент скачан:101 раз
Скачать  

31-07-2013 04:02 12 подвигов Астерикса Скачать торрент  

12 подвигов Астерикса / Les douze travaux d'Asterix / The Twelve Tasks of Asterix
Страна: Франция, Германия
Жанр: фэнтези, комедия, приключения
Продолжительность: 01:18:11
Год выпуска: 1976
Перевод: Профессиональный (многоголосый закадровый)
Оригинальная аудиодорожка: нет
Субтитры: нет

Режиссёр: Рене Госинни / Rene Goscinny, Генри Грюель / Henri Gruel

Описание: 50 год до нашей эры. Великому Юлию Цезарю хуже горькой редьки надоели маленькая галльская деревушка, ее веселые и непокорные обитатели и их волшебное зелье. Как знать, может быть они и вправду боги? Но Цезарь не был бы Цезарем, если бы примирился с подобной ересью.

Он решает дать Астериксу и его друзьям двенадцать заданий, выполнить которые не под силу ни одному смертному. Сказано-сделано. Конечно, времена Геркулеса давно прошли. Но при чем Геркулес, если есть Астерикс и Обеликс?

Именно им вождь деревни Жизнестатистикс и поручает принять августейший вызов. Друзьям же только того и надо — ведь приключения продолжаются, а значит веселая жизнь обеспечена!


Качество: DVDRip
Формат: AVI
Видео кодек: XviD
Аудио кодек: AC3
Видео: 592x352 (1.68:1), 25 fps, XviD build 50 ~1192 kbps avg, 0.23 bit/pixel
Аудио: 48 kHz, MPEG Layer 3, 2 ch, ~128.00 kbps avg
Раздача от:
D:The_Twelve_Tasks_of_Asterix.745.DVDRip.by_dexter_lex.avi
General
Complete name : D:The_Twelve_Tasks_of_Asterix.745.DVDRip.by_dexter_lex.avi
Format : AVI
Format/Info : Audio Video Interleave
File size : 744 MiB
Duration : 1h 18mn
Overall bit rate : 1 331 Kbps
Writing application : VirtualDubMod 1.5.10.3 | www.virtualdub-fr.org || (build 2550/release)
Writing library : VirtualDubMod build 2550/release
Video #0
ID : 0
Format : MPEG-4 Visual
Format profile : Advanced Simple@L5
Format settings, BVOP : 1
Format settings, QPel : No
Format settings, GMC : No warppoints
Format settings, Matrix : Custom
Codec ID : XVID
Codec ID/Hint : XviD
Duration : 1h 18mn
Bit rate : 1 193 Kbps
Width : 592 pixels
Height : 352 pixels
Display aspect ratio : 1.682
Frame rate : 25.000 fps
Color space : YUV
Chroma subsampling : 4:2:0
Bit depth : 8 bits
Scan type : Progressive
Compression mode : Lossy
Bits/(Pixel*Frame) : 0.229
Stream size : 667 MiB (90%)
Writing library : XviD 1.2.1 (UTC 2008-12-04)
Audio #1
ID : 1
Format : MPEG Audio
Format version : Version 1
Format profile : Layer 3
Codec ID : 55
Codec ID/Hint : MP3
Duration : 1h 18mn
Bit rate mode : Constant
Bit rate : 128 Kbps
Channel(s) : 2 channels
Sampling rate : 48.0 KHz
Compression mode : Lossy
Stream size : 71.6 MiB (10%)
Alignment : Aligned on interleaves
Interleave, duration : 40 ms (1.00 video frame)
Interleave, preload duration : 504 ms
Writing library : LAME3.99r
Encoding settings : -m s -V 4 -q 2 -lowpass 17 -b 128
pb.wtf



Скачать 12 подвигов Астерикса через торрент http://i28.fastpic.ru/big/2011/1219/5c/d045f34e042acf498b031c21c7f4a35c.jpg Скачать фильм 12 подвигов Астерикса через торрент бесплантно в хорошем качестве Описание: 50 год до нашей эры. Великому Юлию Цезарю хуже горькой редьки надоели маленькая галльская деревушка, ее веселые и непокорные ... 9.6 10 8
Info! Золотая раздача, скачанное не засчитывается.
Торрент: Зарегистрирован [2013-07-31 04:02] · скачан: 101 раз
Статус: √ проверено
Размер: 744 MB
Как cкачать? Как скачать 12 подвигов Астерикса через торрент | qTorrent

28-11-2019 20:33  

Отключить всю рекламу на сайте

    Дорогой пользователь! Огромная просьба, поблагодарите релизера, оцените раздачу и оставьте свои комментарий, если Вы скачали 12 подвигов Астерикса через торрент бесплатно! Внесите свою лепту в развитие PiratBit!
    Комментировать посты могут только пользователи прошедшие не сложную регистрацию
    Показать сообщения:    

    12 подвигов Астерикса через торрент
    Скачать бесплатно 12 подвигов Астерикса
    12 подвигов Астерикса скачать торрент
    12 подвигов Астерикса смотреть онлайн
    Cкачать фильм 12 подвигов Астерикса бесплатно
    12 подвигов Астерикса скачать торрент в хорошем качестве
    12 подвигов Астерикса смотреть онлайн бесплатно в хорошем качестве


    Вы не можете начинать темы
    Вы не можете отвечать на сообщения
    Вы не можете редактировать свои сообщения
    Вы не можете удалять свои сообщения
    Вы не можете голосовать в опросах
    Вы не можете прикреплять файлы к сообщениям
    Вы можете скачивать файлы