MEGA NEWS Получи личный уникальный адрес сайта и защити себя от блокировок. Внимание количество ограничено!!!

iTunes

1+1

iTunes

мы

iTunes

1

iTunes

Чернобыль

iTunes

Ральф против интернета

Лицензия

ПШазам

Лицензия

Игра престолов

Лицензия

30
pack

ВАЖНО

!!Акция!!

Alien_RageХит недели

RePack

Resident Evil 21

ИГРА 18+

pack

RePack

Metro:Exodus

!!Акция!!

Alien_Rage

RePack

fifa19

RePack

Assassins Creed: Odyssey

RePack

NEED FOR SPEED™ PAYBACK

3 сезон

9 сезон

Бесстыжие 9 сезон

Все сериалы

все сериалы на PB.wtf

RePack

FAR CRY 5
Ребята, катастрофически не хватает 1900р. для оплаты серверов за АВГУСТ (всвязи с блокировками трафик упал в 3 раза), 1-2р., выручайте.
  

Шесть дней, семь ночей / Six Days Seven Nights (Айвен Райтман / Ivan Reitman) [1998, США, Боевик, мелодрама, комедия, приключения, WEB-DLRip] Dub pb.wtf

Шесть дней, семь ночей через торрент pb.wtf

Размер: 746 MB | Добавлен: 6 лет 2 мес. назад | Торрент скачан:60 раз
Скачать  

31-07-2013 07:53 Шесть дней, семь ночей Скачать торрент  

Шесть дней, семь ночей / Six Days Seven Nights
Год выпуска: 1998
Выпущено: США / Touchstone Pictures
Жанр: боевик, мелодрама, комедия, приключения
Продолжительность: 01:41:59
Перевод: Профессиональный (полное дублирование) iTunes Russia
Cубтитры: нет

Режиссер: Айвен Райтман / Ivan Reitman
В ролях: Харрисон Форд (Quinn Harris), Энн Хеч (Robin Monroe), Дэвид Швиммер (Frank Martin), Жаклин Обрадорс (Angelica), Темуэра Моррисон (Jager), Эллисон Дженни (Marjorie, Robin's Boss), Дуглас Уэстон (Philippe Sinclair, Resort Manager), Клифф Кёртис (Kip), Дэнни Трехо (Pierce), Бен Боуд (Tom Marlowe, Helicopter Pilot)

Описание:
Небольшой самолет терпит катастрофу на необитаемом острове. Отважный летчик и его очаровательная пассажирка оказались совершенно одни среди дикой природы. Они отчаянно пытаются сообщить о себе, но не знают, что их уже давно перестали искать. Наконец, впервые за эти дни на пустынном горизонте показался странный корабль, который причалил к затерянному острову.
Но вместо того, чтобы улыбнуться невезучей парочке, судьба снова посмеялась над ними. Вооруженные до зубов пираты так не похожи на долгожданных спасителей! Пилот и его спутница так стремились оказаться в веселой компании. Теперь они хотят снова остаться наедине…

Качество: WEB-DLRip [Six.Days.Seven.Nights.1998.720p.WEB-DL.Rus.Eng.HDCLUB]
Формат: AVI
Видео кодек: XviD
Аудио кодек: MP3
Видео: 688x288 (2.39:1), 23.976 fps, XviD build 50 ~885 kbps avg, 0.19 bit/pixel
Аудио: 48 kHz, MPEG Layer 3, 2 ch, ~128.00 kbps avg
Раздача от:
D:Мои рипыSix.Days.Seven.Nights.1998.WEB-DLRip.745mb.by_dexter_lex.avi
General
Complete name : D:Мои рипыSix.Days.Seven.Nights.1998.WEB-DLRip.745mb.by_dexter_lex.avi
Format : AVI
Format/Info : Audio Video Interleave
File size : 746 MiB
Duration : 1h 41mn
Overall bit rate : 1 023 Kbps
Writing application : VirtualDubMod 1.5.10.3 | www.virtualdub-fr.org || (build 2550/release)
Writing library : VirtualDubMod build 2550/release
Video #0
ID : 0
Format : MPEG-4 Visual
Format profile : Advanced Simple@L5
Format settings, BVOP : 1
Format settings, QPel : No
Format settings, GMC : No warppoints
Format settings, Matrix : Custom
Codec ID : XVID
Codec ID/Hint : XviD
Duration : 1h 41mn
Bit rate : 886 Kbps
Width : 688 pixels
Height : 288 pixels
Display aspect ratio : 2.39:1
Frame rate : 23.976 fps
Color space : YUV
Chroma subsampling : 4:2:0
Bit depth : 8 bits
Scan type : Progressive
Compression mode : Lossy
Bits/(Pixel*Frame) : 0.186
Stream size : 646 MiB (87%)
Writing library : XviD 1.2.1 (UTC 2008-12-04)
Audio #1
ID : 1
Format : MPEG Audio
Format version : Version 1
Format profile : Layer 3
Codec ID : 55
Codec ID/Hint : MP3
Duration : 1h 41mn
Bit rate mode : Constant
Bit rate : 128 Kbps
Channel(s) : 2 channels
Sampling rate : 48.0 KHz
Compression mode : Lossy
Stream size : 93.4 MiB (13%)
Alignment : Aligned on interleaves
Interleave, duration : 42 ms (1.00 video frame)
Interleave, preload duration : 504 ms
Writing library : LAME3.99r
Encoding settings : -m s -V 4 -q 2 -lowpass 17 -b 128
pb.wtf



Скачать Шесть дней, семь ночей через торрент http://i48.fastpic.ru/big/2013/0503/3e/a47fac755235f4ff7732c66fb101ae3e.jpg Скачать фильм Шесть дней, семь ночей через торрент бесплантно в хорошем качестве Описание:Небольшой самолет терпит катастрофу на необитаемом острове. Отважный летчик и его очаровательная пассажирка оказались совершенно ... 10 10 3
Info! Золотая раздача, скачанное не засчитывается.
Торрент: Зарегистрирован [2013-07-31 07:53] · скачан: 60 раз
Статус: √ проверено
Размер: 746 MB
Как cкачать? Как скачать Шесть дней, семь ночей через торрент | qTorrent

% Раздел Тема Автор DL S | L
Фильмы (WEB-DL 720p, 1080p) [ 5.05 GB ] Шесть дней семь ночей / Six Days Seven Nights [1998 WEB-DLRip 720p] Dub + MVO + 4xAVO - KORSAR kisa1980 Скачать
1 | 0
Фильмы (WEB-DL 720p, 1080p) [ 4.05 GB ] Шесть дней семь ночей / Six Days Seven Nights [1998 HDTVRip DUB] Артронах Скачать
1 | 0
Фильмы до 2000 г. [ 743 MB ] Шесть дней семь ночей / Six Days Seven Nights [1998 WEB-DLRip-AVC] Dub dexter lex Скачать
1 | 0


>> Регистрируемся здесь <<






Отзывы и комментарии о схеме читаем и пишем здесь: ---> Отзывы и комментарии о схеме

Новые благодарочки в телеграм довольных пользователей:
скриншот   скриншот   скриншот   скриншот   скриншот
    Дорогой пользователь! Огромная просьба, поблагодарите релизера, оцените раздачу и оставьте свои комментарий, если Вы скачали Шесть дней, семь ночей через торрент бесплатно! Внесите свою лепту в развитие PiratBit!
    Комментировать посты могут только пользователи прошедшие не сложную регистрацию
    Показать сообщения:    

    Шесть дней, семь ночей через торрент
    Скачать бесплатно Шесть дней, семь ночей
    Шесть дней, семь ночей скачать торрент
    Шесть дней, семь ночей смотреть онлайн
    Cкачать фильм Шесть дней, семь ночей бесплатно
    Шесть дней, семь ночей скачать торрент в хорошем качестве
    Шесть дней, семь ночей смотреть онлайн бесплатно в хорошем качестве


    Вы не можете начинать темы
    Вы не можете отвечать на сообщения
    Вы не можете редактировать свои сообщения
    Вы не можете удалять свои сообщения
    Вы не можете голосовать в опросах
    Вы не можете прикреплять файлы к сообщениям
    Вы можете скачивать файлы