2 сезон

iTunes

MVO

1

2 сезон

iTunes

iTunes

1 сезон

RePack

30

Ultimate

ВАЖНО

ИГРА 18+

pack

RePack

MK11
pack

Легкие деньги

RePack

jed

RePack

fifa19

RePack

RDR2

RePack

NEED FOR SPEED™ PAYBACK

4 сезон

9 сезон

Бесстыжие 9 сезон

Все сериалы

все сериалы на PB.wtf

RePack

FAR CRY 5

Anonymous, добрый вечер, мы не успеваем собрать деньги на оплату серверов за декабрь и январь, помогите нам пожалуйста в это трудное время. В качестве благодарности мы отключим Вам всю рекламу на сайте (укажите свой ник в строку Ваше имя)!

×
  
Magnet ссылка

Охотники на ведьм в 3D / Hansel & Gretel: Witch Hunters in 3D (Томми Виркола) [2013 г., ужасы, фэнтези, боевик, BDRip 1080p, Дубляж, лицензия] Anaglyph, red'cyan pb.wtf

Охотники на ведьм в 3D через торрент pb.wtf

Размер: 5.47 GB | Добавлен: 7 лет 5 мес. назад | Торрент скачан:440 раз
Скачать  

31-07-2013 09:47 Охотники на ведьм в 3D Скачать торрент  

Охотники на ведьм в 3D / Hansel & Gretel: Witch Hunters in 3D
Год выпуска: 2013
Страна: США
Жанр:ужасы, фэнтези, боевик,
Продолжительность: 01:27:56
Перевод: Дубляж, Лицензия

Режиссер: Томми Виркола
Продюссер: Уилл Феррелл, Бо Флинн, Крис Хенчи
Сценарий: Томми Виркола

Бюджет: $50 000 000
Премьера в мире: 19 января 2013

IMDB 6.20 (36 825)



В ролях: Джереми Реннер, Джемма Артертон, Фамке Янссен, Пихла Виитала, Дерек Мирс, Робин Аткин Даунс, Ингрид Болсай Бердал, Джоэнна Кулиг, Томас Манн, Петер Стормаре,
Роли дублировали: Илья Исаев, Ирина Киреева, Ольга Плетнёва, Николай Быстров, Андрей Данилюк,

Описание: Едва не погибнув в лапах ужасной ведьмы, Гензель и Гретель стали только сильнее. Одержимые местью, они ведут отчаянную борьбу со злом, даже не подозревая, что их поджидает нечто куда более опасное... собственное прошлое...

Доп. информация: (CROP) Формат 3D: Анаглиф red'cyan
Внимание: Справа и слева видеоряд обрезан, что дает возможность просмотра на полный экран (без черных полос) на телевизорах с соотношением сторон 16:9 без изменения пропорций.

Качество: BDRip 1080p
Формат: MKV
Видео кодек: H.264
Аудио кодек: AC3
Видео: 1920 х 1072 / 23,976 fps, (16:9) / 8004 Kbps, (0.162 bit/pixel)
Аудио#1: Русский / AC3 / 48 KHz / 5.1 ch / 448 Kbps
Аудио#2: English / AC3 / 48 KHz / 5.1 ch / 448 Kbps



скриншот   скриншот   скриншот   скриншот   скриншот   скриншот  
Общее
Уникальный идентификатор : 192746896218989518292679785357955090487 (0x9101B3B07A469A86AEBB4962633CC837)
Полное имя : E:Hansel.&.Gretel.Witch.Hunters.3D(Crop)(Anaglyph).mkv
Формат : Matroska
Версия формата : Version 4 / Version 2
Размер файла : 5,47 Гбайт
Продолжительность : 1 ч. 27 м.
Общий поток : 8897 Кбит/сек
Название фильма : Охотники на ведьм / Hansel&Gretel.WitchHunters.3D(Crop).(Anaglyph)
Дата кодирования : UTC 2013-07-31 08:35:15
Программа кодирования : mkvmerge v6.2.0 ('Promised Land') built on Apr 28 2013 12:22:01
Библиотека кодирования : libebml v1.3.0 + libmatroska v1.4.0

Видео
Идентификатор : 1
Формат : AVC
Формат/Информация : Advanced Video Codec
Профиль формата : High@L4.0
Параметр CABAC формата : Да
Параметр ReFrames формата : 4 кадра
Идентификатор кодека : V_MPEG4/ISO/AVC
Продолжительность : 1 ч. 27 м.
Битрейт : 8004 Кбит/сек
Ширина : 1920 пикселей
Высота : 1072 пикселя
Соотношение сторон : 16:9
Частота кадров : 23,976 кадра/сек
Цветовое пространство : YUV
Субдискретизация насыщенности : 4:2:0
Битовая глубина : 8 бит
Тип развёртки : Прогрессивная
Бит/(Пиксели*Кадры) : 0.162
Размер потока : 4,81 Гбайт (88%)
Заголовок : Hansel&Gretel.WitchHunters.3D(Crop).(Anaglyph).mkv
Библиотека кодирования : x264 core 130 r2273 b3065e6
Настройки программы : cabac=1 / ref=3 / deblock=1:0:0 / analyse=0x3:0x113 / me=hex / subme=2 / psy=1 / psy_rd=1.00:0.00 / mixed_ref=1 / me_range=16 / chroma_me=1 / trellis=0 / 8x8dct=1 / cqm=0 / deadzone=21,11 / fast_pskip=1 / chroma_qp_offset=0 / threads=1 / lookahead_threads=1 / sliced_threads=0 / nr=0 / decimate=1 / interlaced=0 / bluray_compat=0 / constrained_intra=0 / bframes=3 / b_pyramid=2 / b_adapt=1 / b_bias=0 / direct=1 / weightb=1 / open_gop=0 / weightp=2 / keyint=240 / keyint_min=24 / scenecut=40 / intra_refresh=0 / rc_lookahead=40 / rc=abr / mbtree=1 / bitrate=8004 / ratetol=1.0 / qcomp=0.60 / qpmin=0 / qpmax=69 / qpstep=4 / ip_ratio=1.40 / aq=1:1.00
Язык : English
Основные цвета : BT.709-5, BT.1361, IEC 61966-2-4, SMPTE RP177
Характеристики трансфера : BT.709-5, BT.1361
Коэффициенты матрицы : BT.709-5, BT.1361, IEC 61966-2-4 709, SMPTE RP177

Аудио #1
Идентификатор : 2
Формат : AC-3
Формат/Информация : Audio Coding 3
Расширение режима : CM (complete main)
Идентификатор кодека : A_AC3
Продолжительность : 1 ч. 27 м.
Вид битрейта : Постоянный
Битрейт : 448 Кбит/сек
Каналы : 6 каналов
Расположение каналов : Front: L C R, Side: L R, LFE
Частота : 48,0 КГц
Битовая глубина : 16 бит
Метод сжатия : С потерями
Размер потока : 282 Мбайт (5%)
Заголовок : Dub (AC3 Dolby Digital, 48 KHz, 448 kbps)
Язык : Russian

Аудио #2
Идентификатор : 3
Формат : AC-3
Формат/Информация : Audio Coding 3
Расширение режима : CM (complete main)
Идентификатор кодека : A_AC3
Продолжительность : 1 ч. 27 м.
Вид битрейта : Постоянный
Битрейт : 448 Кбит/сек
Каналы : 6 каналов
Расположение каналов : Front: L C R, Side: L R, LFE
Частота : 48,0 КГц
Битовая глубина : 16 бит
Метод сжатия : С потерями
Размер потока : 282 Мбайт (5%)
Заголовок : AC3 Dolby Digital, 48 KHz, 448 kbps
Язык : English
pb.wtf



Скачать Охотники на ведьм в 3D через торрент http://i48.fastpic.ru/big/2013/0518/ab/1f89c808cfbcc4483770a29c30775dab.gif Скачать фильм Охотники на ведьм в 3D через торрент бесплантно в хорошем качестве Описание: Едва не погибнув в лапах ужасной ведьмы, Гензель и Гретель стали только сильнее. Одержимые местью, они ведут отчаянную борьбу со ... 9.2 10 13
Info! Золотая раздача, скачанное не засчитывается.
Торрент: Зарегистрирован [2013-07-31 09:47] · скачан: 440 раз
Статус: √ проверено
Размер: 5.47 GB
Как cкачать? Как скачать Охотники на ведьм в 3D через торрент | UTorrent

28-11-2019 20:33  

Отключить всю рекламу на сайте

31-07-2013 14:52 Охотники на ведьм в 3D Скачать торрент  

почему никто не пишет, что жанр - комедия?
притом фэйспалмовая комедия - это трэш, какого поискать ещё надо.pb.wtf



27-11-2013 08:37 Охотники на ведьм в 3D Скачать торрент  

почему я в stereoscopic player не могу изображение настроить? первый раз такой бред? автоматом открывает как вертикальную стереопару, меняю режимы, толку нет.....((((pb.wtf



27-11-2013 10:44 Охотники на ведьм в 3D Скачать торрент  

Формат входящего файла формат на выходе
Для просмотра анаглифа можно пользоватся любым плеером не 3Д , в данном случае Stereoscopic Player не нужен. Stereoscopic Player можно использовать если вы скачали стереопару , а 3Д телевизора у вас нет . Надеваем очки сине-зеленые , настраеваем в Stereoscopic Player на входе стереопару , на выходе анаглиф и смотрим.pb.wtf



    Дорогой пользователь! Огромная просьба, поблагодарите релизера, оцените раздачу и оставьте свои комментарий, если Вы скачали Охотники на ведьм в 3D через торрент бесплатно! Внесите свою лепту в развитие PiratBit!
    Комментировать посты могут только пользователи прошедшие не сложную регистрацию
    Показать сообщения:    

    Охотники на ведьм в 3D через торрент
    Скачать бесплатно Охотники на ведьм в 3D
    Охотники на ведьм в 3D скачать торрент
    Охотники на ведьм в 3D смотреть онлайн
    Cкачать фильм Охотники на ведьм в 3D бесплатно
    Охотники на ведьм в 3D скачать торрент в хорошем качестве
    Охотники на ведьм в 3D смотреть онлайн бесплатно в хорошем качестве


    Вы не можете начинать темы
    Вы не можете отвечать на сообщения
    Вы не можете редактировать свои сообщения
    Вы не можете удалять свои сообщения
    Вы не можете голосовать в опросах
    Вы не можете прикреплять файлы к сообщениям
    Вы можете скачивать файлы