Всегда рабочее зеркало без VPN и Proxy просто перед .vidak.icu напиши любое слово или цифру, Пример http://kcc0.vidak.icu

MVO

MVO

1 сезон

1

1 сезон

iTunes

1 сезон

13

1 сезон

Deluxe

pack

Рекомендуем

Repack

30

ВАЖНО

RePack

MK11

RePack

jed

RePack

fifa19

RePack

RDR2

RePack

NEED FOR SPEED™ PAYBACK

Кинопоиск HD

6 сезон

 Острые козырьки 6 сезон

Все сериалы

все сериалы на PB.wtf

RePack

FAR CRY 5
  
Magnet ссылка

Дорожный убийца / Machine Head (Джим Валдез / Jim Valdez) [ 2011 , США , триллер , HDRip ] MVO НТВ+ pb.wtf

Дорожный убийца через торрент pb.wtf

Размер: 1.37 GB | Добавлен: 9 лет назад | Торрент скачан:56 раз
Смотреть онлайн Дорожный убийца | Скачать    Ребята, помогите собрать деньги на оплату серверов!!!

31-07-2013 18:10 Дорожный убийца Скачать торрент  

Дорожный убийца / Machine Head


  • Год выпуска:2011
  • Страна:США
  • Жанр:триллер
  • Продолжительность: 01:22:19
  • Перевод:Профессиональный (многоголосый, закадровый) НТВ+

  • Субтитры: Нет
    • Режиссер:Джим Валдез / Jim Valdez

  • В ролях:Шэрон Хинендэйл (Rachel), Николь Зиоли (Chloe), Кристина Корильяно (Mila), Морисса О’Мара (Sarah), Алана О’Мара (Nikki), Роберт Адамсон (Shane), Бретт Хауэлл (Tristan), Блейк Баскин (Logan), Alexis Archer (Katherine Figueroa), Барбара Джин Барриэль (Jill), Шелли Беннетт (Jordan), Markie Collins (Amber)
    • Описание:
      Три студентки колледжа, проводящие весенние каникулы вдали от цивилизации, оказываются во власти дорожного маньяка...

  • Рейтинг
    kinopoisk.ru: 3.292 (56)
    imdb.com: 4.00 (10)
    • Качество:HDRip
    • Формат:AVI
    • Видео кодек: XviD
    • Аудио кодек: AC3
    • Видео: XviD, 720x400 (16:9), 1919 kbps, 23,976 fps, 0,278 bpp
    • Аудио: AC3 / 5.1 / 48 kHz / 448 kbps / 16 bit

    General
    Complete name : D:ТорентыDorozhnii.ubiica.2011.P.HDRip.1400Mb.avi
    Format : AVI
    Format/Info : Audio Video Interleave
    File size : 1.37 GiB
    Duration : 1h 22mn
    Overall bit rate : 2 377 Kbps
    Writing application : VirtualDubMod 1.5.10.3 | www.virtualdub-fr.org || (build 2550/release)
    Writing library : VirtualDubMod build 2550/release

    Video
    ID : 0
    Format : MPEG-4 Visual
    Format profile : Advanced [email protected]
    Format settings, BVOP : 2
    Format settings, QPel : No
    Format settings, GMC : No warppoints
    Format settings, Matrix : Default (MPEG)
    Codec ID : XVID
    Codec ID/Hint : XviD
    Duration : 1h 22mn
    Bit rate : 1 920 Kbps
    Width : 720 pixels
    Height : 400 pixels
    Display aspect ratio : 16:9
    Frame rate : 23.976 fps
    Color space : YUV
    Chroma subsampling : 4:2:0
    Bit depth : 8 bits
    Scan type : Progressive
    Compression mode : Lossy
    Bits/(Pixel*Frame) : 0.278
    Stream size : 1.10 GiB (81%)
    Writing library : XviD 1.2.1 (UTC 2008-12-04)

    Audio
    ID : 1
    Format : AC-3
    Format/Info : Audio Coding 3
    Mode extension : CM (complete main)
    Codec ID : 2000
    Duration : 1h 22mn
    Bit rate mode : Constant
    Bit rate : 448 Kbps
    Channel(s) : 6 channels
    Channel positions : Front: L C R, Side: L R, LFE
    Sampling rate : 48.0 KHz
    Bit depth : 16 bits
    Compression mode : Lossy
    Stream size : 264 MiB (19%)
    Alignment : Split accross interleaves
    Interleave, duration : 42 ms (1.00 video frame)
    Interleave, preload duration : 500 ms

    © Оформление by Vetalpb.wtf



  • Скачать Дорожный убийца через торрент http://i4.imageban.ru/out/2013/07/31/cf57e8b558b98c55ccd60039081d3c31.jpg Скачать, смотреть онлайн Дорожный убийца бесплантно в хорошем качестве Описание:Три студентки колледжа, проводящие весенние каникулы вдали от цивилизации, оказываются во власти дорожного ... 10 10 8
    Info! Золотая раздача, скачанное не засчитывается.
    Торрент: Зарегистрирован [2013-07-31 18:10] · скачан: 56 раз
    Статус: √ проверено
    Размер: 1.37 GB
    Как cкачать? Как скачать Дорожный убийца через торрент | UTorrent

    28-11-2019 20:33  

    Отключить вcю реклaмy на сайте

    01-08-2013 00:24 Дорожный убийца Скачать торрент  

    грозные телки 2pb.wtf



      Дорогой пользователь! Огромная просьба, поблагодарите релизера, оцените раздачу и оставьте свои комментарий, если Вы скачали Дорожный убийца через торрент бесплатно!
      Комментировать посты могут только пользователи прошедшие не сложную регистрацию
      Показать сообщения:    

      Дорожный убийца через торрент
      Скачать бесплатно Дорожный убийца
      Дорожный убийца скачать торрент
      Дорожный убийца смотреть онлайн
      Cкачать фильм Дорожный убийца бесплатно
      Дорожный убийца скачать торрент в хорошем качестве
      Дорожный убийца смотреть онлайн бесплатно в хорошем качестве


      Вы не можете начинать темы
      Вы не можете отвечать на сообщения
      Вы не можете редактировать свои сообщения
      Вы не можете удалять свои сообщения
      Вы не можете голосовать в опросах
      Вы не можете прикреплять файлы к сообщениям
      Вы можете скачивать файлы