Ссылка на приватное зеркало нашего сайта всего за 1$. Внимание количество ограничено!!!

2 сезон

iTunes

1 сезон

1

iTunes

iTunes

iTunes

1 сезон

RePack

30

ИГРА 18+

pack

ВАЖНО

!!Акция!!

Alien_RageХит недели

RePack

MK11
pack

Забери бонус

RePack

jed

!!Акция!!

Alien_Rage

RePack

fifa19

RePack

Assassins Creed: Odyssey

RePack

NEED FOR SPEED™ PAYBACK

4 сезон

9 сезон

Бесстыжие 9 сезон

Все сериалы

все сериалы на PB.wtf

RePack

FAR CRY 5
  

Смертельное оружие 3 / Lethal Weapon 3 (Ричард Доннер) [1992 г., боевик, триллер, комедия, криминал, BDRip 1080p, Дубляж] pb.wtf

Смертельное оружие 3 через торрент pb.wtf

Размер: 7.76 GB | Добавлен: 7 лет 2 мес. назад | Торрент скачан:29 раз
Скачать  

31-07-2013 21:47 Смертельное оружие 3 Скачать торрент  

Смертельное оружие 3 / Lethal Weapon 3
Год выпуска: 1992
Страна: США
Жанр: боевик, триллер, комедия, криминал,
Продолжительность: 01:57:53
Перевод: Дубляж+Оригинал
Субтитры: Русские, Английские

Режиссер: Ричард Доннер

В ролях: Мэл Гибсон, Дэнни Гловер, Джо Пеши, Рене Руссо, Стюарт Уилсон, Стив Кэхэн, Дарлен Лав, Трэйси Вульф, Дэймон Хайнс, Эбони Смит,

Описание: Третий фильм о неустрашимом полицейском Риггсе. На этот раз Мартин и его напарник Роджер сталкиваются с гангстерами, похищающими оружие со склада полиции. Преступную группу, за которой тянется длинный кровавый след, возглавляет бывший сержант Джек Тревис. Найти улики против «грязного» полицейского напарникам помогает Лорна Коул - решительная женщина-полицейский, которая не останавливается перед лицом опасности и уверенно вступает в схватку с противниками...

Качество: BDRip 1080p
Формат: MKV
Видео кодек: H.264
Аудио кодек: AC3
Видео: 1920x800, 8146 Kbps, 23.976 fps
Аудио#1: AC-3, 6 ch, 640 kbps (Rus) 48.0 KHz
Аудио#2: AC-3, 6 ch, 640 kbps (Eng) 48.0 KHz

Общее
Уникальный идентификатор : 186115552415733044717307367573708208077 (0x8C048D32785B3087835CAFB631EDF7CD)
Полное имя : Смертельное оружие 3.1992.BDRip.1080p.Rus.Eng.mkv
Формат : Matroska
Версия формата : Version 4 / Version 2
Размер файла : 7,76 Гбайт
Продолжительность : 1 ч. 57 м.
Общий поток : 9427 Кбит/сек
Название фильма : Смертельное оружие 3.1992
Дата кодирования : UTC 2013-04-24 16:34:26
Программа кодирования : mkvmerge v6.1.0 ('Old Devil') built on Mar 4 2013 09:10:42
Библиотека кодирования : libebml v1.3.0 + libmatroska v1.4.0

Видео
Идентификатор : 1
Формат : AVC
Формат/Информация : Advanced Video Codec
Профиль формата : High@L4.1
Параметр CABAC формата : Да
Параметр ReFrames формата : 5 кадров
Идентификатор кодека : V_MPEG4/ISO/AVC
Продолжительность : 1 ч. 57 м.
Битрейт : 8146 Кбит/сек
Ширина : 1920 пикселей
Высота : 800 пикселей
Соотношение сторон : 2,40:1
Режим частоты кадров : Постоянный
Частота кадров : 23,976 кадра/сек
Цветовое пространство : YUV
Субдискретизация насыщенности : 4:2:0
Битовая глубина : 8 бит
Тип развёртки : Прогрессивная
Бит/(Пиксели*Кадры) : 0.221
Размер потока : 6,55 Гбайт (84%)
Заголовок : Rip by Boriy
Библиотека кодирования : x264 core 130 r2273 b3065e6
Настройки программы : cabac=1 / ref=5 / deblock=1:-3:-3 / analyse=0x3:0x113 / me=umh / subme=10 / psy=1 / psy_rd=1.00:0.10 / mixed_ref=1 / me_range=32 / chroma_me=1 / trellis=2 / 8x8dct=1 / cqm=0 / deadzone=21,11 / fast_pskip=0 / chroma_qp_offset=-2 / threads=12 / lookahead_threads=1 / sliced_threads=0 / nr=0 / decimate=0 / interlaced=0 / bluray_compat=0 / constrained_intra=0 / bframes=5 / b_pyramid=2 / b_adapt=2 / b_bias=0 / direct=3 / weightb=1 / open_gop=0 / weightp=2 / keyint=240 / keyint_min=23 / scenecut=40 / intra_refresh=0 / rc=2pass / mbtree=0 / bitrate=8146 / ratetol=1.0 / qcomp=0.60 / qpmin=0 / qpmax=69 / qpstep=4 / cplxblur=20.0 / qblur=0.5 / ip_ratio=1.40 / pb_ratio=1.30 / aq=1:0.80
Язык : English
Default : Да
Forced : Нет

Аудио #1
Идентификатор : 2
Формат : AC-3
Формат/Информация : Audio Coding 3
Расширение режима : CM (complete main)
Параметр Endianness формата : Big
Идентификатор кодека : A_AC3
Продолжительность : 1 ч. 57 м.
Вид битрейта : Постоянный
Битрейт : 640 Кбит/сек
Каналы : 6 каналов
Расположение каналов : Front: L C R, Side: L R, LFE
Частота : 48,0 КГц
Битовая глубина : 16 бит
Метод сжатия : С потерями
Размер потока : 540 Мбайт (7%)
Заголовок : Дубляж
Язык : Russian
Default : Да
Forced : Нет

Аудио #2
Идентификатор : 3
Формат : AC-3
Формат/Информация : Audio Coding 3
Расширение режима : CM (complete main)
Параметр Endianness формата : Big
Идентификатор кодека : A_AC3
Продолжительность : 1 ч. 57 м.
Вид битрейта : Постоянный
Битрейт : 640 Кбит/сек
Каналы : 6 каналов
Расположение каналов : Front: L C R, Side: L R, LFE
Частота : 48,0 КГц
Битовая глубина : 16 бит
Метод сжатия : С потерями
Размер потока : 540 Мбайт (7%)
Заголовок : Оригинал
Язык : English
Default : Нет
Forced : Нет

Текст #1
Идентификатор : 4
Формат : UTF-8
Идентификатор кодека : S_TEXT/UTF8
Идентификатор кодека/Информация : UTF-8 Plain Text
Язык : Russian
Default : Нет
Forced : Нет

Текст #2
Идентификатор : 5
Формат : UTF-8
Идентификатор кодека : S_TEXT/UTF8
Идентификатор кодека/Информация : UTF-8 Plain Text
Язык : English
Default : Нет
Forced : Нет

Меню
00:00:00.000 : :Chapter 1
00:01:39.182 : :Chapter 2
00:07:48.676 : :Chapter 3
00:10:05.062 : :Chapter 4
00:15:11.744 : :Chapter 5
00:20:08.832 : :Chapter 6
00:22:06.450 : :Chapter 7
00:24:36.975 : :Chapter 8
00:29:16.421 : :Chapter 9
00:37:00.593 : :Chapter 10
00:43:34.028 : :Chapter 11
00:49:31.551 : :Chapter 12
00:53:44.262 : :Chapter 13
00:56:17.791 : :Chapter 14
00:58:06.483 : :Chapter 15
01:00:42.347 : :Chapter 16
01:05:49.111 : :Chapter 17
01:11:41.422 : :Chapter 18
01:14:59.745 : :Chapter 19
01:18:15.982 : :Chapter 20
01:22:29.361 : :Chapter 21
01:24:37.197 : :Chapter 22
01:27:21.945 : :Chapter 23
01:29:59.268 : :Chapter 24
01:34:44.178 : :Chapter 25
01:37:15.329 : :Chapter 26
01:42:34.606 : :Chapter 27
01:46:24.628 : :Chapter 28
01:48:26.458 : :Chapter 29
01:51:44.030 : :Chapter 30
01:57:05.018 : :Chapter 31
01:57:52.857 : :Chapter 32

pb.wtf



Скачать Смертельное оружие 3 через торрент http://pic.kartinco.top/images/3/g7amjfdj46.png Скачать фильм Смертельное оружие 3 через торрент бесплантно в хорошем качестве Описание: Третий фильм о неустрашимом полицейском Риггсе. На этот раз Мартин и его напарник Роджер сталкиваются с гангстерами, похищающими ... 10 10 12
Info! Золотая раздача, скачанное не засчитывается.
Торрент: Зарегистрирован [2013-07-31 21:47] · скачан: 29 раз
Статус: √ проверено
Размер: 7.76 GB
Как cкачать? Как скачать Смертельное оружие 3 через торрент | qTorrent

% Раздел Тема Автор DL S | L
Зарубежные сериалы [ 38.08 GB ] Смертельное оружие / Lethal Weapon / Сезон: 3 / Серии: 1-15 из 15 [2018 WEB-DL 1080p] MVO [LostFilm] bober100 Скачать
1 | 0
Зарубежные сериалы [ 8.09 GB ] Смертельное Оружие / Lethal Weapon / Сезон: 3 / Серии: 1-15 из 15 [2018-2019 WEB-DLRip] [MVO] killermax2013 Скачать
1 | 0
Зарубежные сериалы [ 35.32 GB ] Смертельное оружие / Lethal Weapon / Сезон: 3 / Серии: 1-15 из 15 [2018 WEBRip 1080p] MVO [BaibaKo] bober100 Скачать
1 | 0
Зарубежные сериалы [ 8.24 GB ] Смертельное оружие / Lethal Weapon / Сезон: 3 / Серии: 1-15 из 15 [2018 WEB-DLRip] MVO [Newstudio] bober100 Скачать
1 | 0
Зарубежные сериалы [ 8.52 GB ] Смертельное оружие / Lethal Weapon / Сезон: 3 / Серии: 1-15 из 15 [2018 WEB-DLRip] MVO [LostFilm] bober100 Скачать
2 | 0
Зарубежные сериалы [ 36.92 GB ] Смертельное Оружие / Lethal Weapon / Сезон: 3 / Серии: 1-15 из 15 [2018 WEB-DL 1080p] [MVO] killermax2013 Скачать
1 | 0
Зарубежные сериалы [ 35.74 GB ] Смертельное оружие / Lethal Weapon / Сезон: 3 / Серии: 1-15 из 15 [2018 WEB-DL 1080p] MVO [Jaskier] bober100 Скачать
1 | 0

28-11-2019 20:33  

Отключить всю рекламу на сайте

    Дорогой пользователь! Огромная просьба, поблагодарите релизера, оцените раздачу и оставьте свои комментарий, если Вы скачали Смертельное оружие 3 через торрент бесплатно! Внесите свою лепту в развитие PiratBit!
    Комментировать посты могут только пользователи прошедшие не сложную регистрацию
    Показать сообщения:    

    Смертельное оружие 3 через торрент
    Скачать бесплатно Смертельное оружие 3
    Смертельное оружие 3 скачать торрент
    Смертельное оружие 3 смотреть онлайн
    Cкачать фильм Смертельное оружие 3 бесплатно
    Смертельное оружие 3 скачать торрент в хорошем качестве
    Смертельное оружие 3 смотреть онлайн бесплатно в хорошем качестве


    Вы не можете начинать темы
    Вы не можете отвечать на сообщения
    Вы не можете редактировать свои сообщения
    Вы не можете удалять свои сообщения
    Вы не можете голосовать в опросах
    Вы не можете прикреплять файлы к сообщениям
    Вы можете скачивать файлы