Ссылка на приватное зеркало нашего сайта всего за 1$. Внимание количество ограничено!!!

2 сезон

iTunes

1 сезон

1

iTunes

iTunes

iTunes

1 сезон

RePack

30

ИГРА 18+

pack

ВАЖНО

!!Акция!!

Alien_RageХит недели

RePack

MK11
pack

Забери бонус

RePack

jed

!!Акция!!

Alien_Rage

RePack

fifa19

RePack

Assassins Creed: Odyssey

RePack

NEED FOR SPEED™ PAYBACK

4 сезон

9 сезон

Бесстыжие 9 сезон

Все сериалы

все сериалы на PB.wtf

RePack

FAR CRY 5
  

Вне закона / Hors la loi (Рашид Бушареб / Rachid Bouchareb) [ 2010 , Франция, Алжир, Бельгия, Тунис, Италия , драма, криминал, военный , HDRip ] DVO pb.wtf

Вне закона через торрент pb.wtf

Размер: 2.18 GB | Добавлен: 7 лет 2 мес. назад | Торрент скачан:25 раз
Скачать  

01-08-2013 16:05 Вне закона Скачать торрент  

Вне закона / Hors la loi

«Three brothers. One destiny. Freedom at all costs.»

  • Год выпуска:2010
  • Страна:Франция, Алжир, Бельгия, Тунис, Италия
  • Жанр:драма, криминал, военный
  • Продолжительность: 02:18:31
  • Перевод:Профессиональный (двухголосый)

  • Субтитры: Нет
    • Режиссер:Рашид Бушареб / Rachid Bouchareb

  • В ролях:Жамель Деббуз (Saïd), Рошди Зем (Messaoud), Сами Буажила (Abdelkader), Шафия Будраа (La mère), Бернар Бланкан (Faivre), Сабрина Сейвеку (Hélène), Ассаад Буаб (Ali), Тибо де Монталембер (Morvan), Самир Гесми (Otmani), Жан-Пьер Лори (Picot), Ахмед Бенаисса (Le père), Larbi Zekkal (Le caïd)
    • Описание:
      Судьба разлучает изгнанных с родной алжирской земли мать и троих братьев. Мессауд отправляется воевать в Индокитай. Абделькадер становится во главе движения за освобождения Алжира в Париже, а Саид делает себе состояние в трущобах и боксерских клубах в районе Пигаль. Их судьбы, скрепленные материнской любовью, переплетаются с судьбой народа, ведущего борьбу за свободу.

  • Рейтинг
    kinopoisk.ru: 6.555 (402)
    imdb.com: 6.40 (2 198)
    • Качество:HDRip
    • Формат:AVI
    • Видео кодек: XviD
    • Аудио кодек: AC3
    • Видео: XviD, 720x304 (2.35:1), 1795 kbps, 24 fps, 0,342 bpp
    • Аудио: AC3 / 5.1 / 48 kHz / 448 kbps / 16 bit

    General
    Complete name : D:ТорентыVne.zakona.2010.P2.HDRip.avi
    Format : AVI
    Format/Info : Audio Video Interleave
    Format profile : OpenDML
    File size : 2.18 GiB
    Duration : 2h 18mn
    Overall bit rate : 2 256 Kbps
    Writing application : VirtualDubMod 1.5.10.3 (build 2550/release)
    Writing library : VirtualDubMod build 2550/release

    Video
    ID : 0
    Format : MPEG-4 Visual
    Format profile : Advanced Simple@L5
    Format settings, BVOP : 1
    Format settings, QPel : No
    Format settings, GMC : No warppoints
    Format settings, Matrix : Custom
    Codec ID : XVID
    Codec ID/Hint : XviD
    Duration : 2h 18mn
    Bit rate : 1 795 Kbps
    Width : 720 pixels
    Height : 304 pixels
    Display aspect ratio : 2.35:1
    Frame rate : 24.000 fps
    Color space : YUV
    Chroma subsampling : 4:2:0
    Bit depth : 8 bits
    Scan type : Progressive
    Compression mode : Lossy
    Bits/(Pixel*Frame) : 0.342
    Stream size : 1.74 GiB (80%)
    Writing library : XviD 1.2.1 (UTC 2008-12-04)

    Audio
    ID : 1
    Format : AC-3
    Format/Info : Audio Coding 3
    Mode extension : CM (complete main)
    Codec ID : 2000
    Duration : 2h 18mn
    Bit rate mode : Constant
    Bit rate : 448 Kbps
    Channel(s) : 6 channels
    Channel positions : Front: L C R, Side: L R, LFE
    Sampling rate : 48.0 KHz
    Bit depth : 16 bits
    Compression mode : Lossy
    Stream size : 444 MiB (20%)
    Alignment : Split accross interleaves
    Interleave, duration : 42 ms (1.00 video frame)
    Interleave, preload duration : 500 ms

    © Оформление&Постер by Vetalpb.wtf



  • Скачать Вне закона через торрент http://pic.kartinco.top/images/3/3c3l7enaai.png Скачать фильм Вне закона через торрент бесплантно в хорошем качестве Описание:Судьба разлучает изгнанных с родной алжирской земли мать и троих братьев. Мессауд отправляется воевать в Индокитай. Абделькадер ... 10 10 5
    Info! Золотая раздача, скачанное не засчитывается.
    Торрент: Зарегистрирован [2013-08-01 16:05] · скачан: 25 раз
    Статус: √ проверено
    Размер: 2.18 GB
    Как cкачать? Как скачать Вне закона через торрент | qTorrent

    % Раздел Тема Автор DL S | L
    Фильмы 2010 [ 1.46 GB ] Вне закона / Hors-la-loi [2010 HDRip] DVO Sanya$$ Скачать
    1 | 0

    28-11-2019 20:33  

    Отключить всю рекламу на сайте

      Дорогой пользователь! Огромная просьба, поблагодарите релизера, оцените раздачу и оставьте свои комментарий, если Вы скачали Вне закона через торрент бесплатно! Внесите свою лепту в развитие PiratBit!
      Комментировать посты могут только пользователи прошедшие не сложную регистрацию
      Показать сообщения:    

      Вне закона через торрент
      Скачать бесплатно Вне закона
      Вне закона скачать торрент
      Вне закона смотреть онлайн
      Cкачать фильм Вне закона бесплатно
      Вне закона скачать торрент в хорошем качестве
      Вне закона смотреть онлайн бесплатно в хорошем качестве


      Вы не можете начинать темы
      Вы не можете отвечать на сообщения
      Вы не можете редактировать свои сообщения
      Вы не можете удалять свои сообщения
      Вы не можете голосовать в опросах
      Вы не можете прикреплять файлы к сообщениям
      Вы можете скачивать файлы